<?xml version="1.0" standalone="no"?>
<!DOCTYPE svg PUBLIC "-//W3C//DTD SVG 1.1//EN" "http://www.w3.org/Graphics/SVG/1.1/DTD/svg11.dtd" >
<svg xmlns="http://www.w3.org/2000/svg">
<metadata>Generated by IcoMoon</metadata>
<defs>
<font id="bronson-skoda" horiz-adv-x="1024">
<font-face units-per-em="1024" ascent="960" descent="-64" />
<missing-glyph horiz-adv-x="1024" />
<glyph unicode="&#x20;" horiz-adv-x="512" d="" />
<glyph unicode="&#xe900;" glyph-name="add" d="M896 473.6v-51.2h-358.4v-358.4h-51.2v358.4h-358.4v51.2h358.4v358.4h51.2v-358.4z" />
<glyph unicode="&#xe901;" glyph-name="air-filter" d="M102.4 294.4c-15.36 0-25.6-10.24-25.6-25.6s10.24-25.6 25.6-25.6c15.36 0 25.6 10.24 25.6 25.6s-10.24 25.6-25.6 25.6zM204.8 422.4c15.36 0 25.6 10.24 25.6 25.6s-10.24 25.6-25.6 25.6c-15.36 0-25.6-10.24-25.6-25.6s10.24-25.6 25.6-25.6zM217.6 524.8c7.68 0 12.8 5.12 12.8 12.8s-5.12 12.8-12.8 12.8c-7.68 0-12.8-5.12-12.8-12.8s5.12-12.8 12.8-12.8zM192 678.4c7.68 0 12.8 5.12 12.8 12.8s-5.12 12.8-12.8 12.8c-7.68 0-12.8-5.12-12.8-12.8s5.12-12.8 12.8-12.8zM140.8 371.2c-7.68 0-12.8-5.12-12.8-12.8s5.12-12.8 12.8-12.8c7.68 0 12.8 5.12 12.8 12.8s-5.12 12.8-12.8 12.8zM243.2 294.4c7.68 0 12.8 5.12 12.8 12.8s-5.12 12.8-12.8 12.8c-7.68 0-12.8-5.12-12.8-12.8s5.12-12.8 12.8-12.8zM115.2 601.6c-20.48 0-38.4-17.92-38.4-38.4s17.92-38.4 38.4-38.4 38.4 17.92 38.4 38.4-17.92 38.4-38.4 38.4zM217.6 217.6c-20.48 0-38.4-17.92-38.4-38.4s17.92-38.4 38.4-38.4 38.4 17.92 38.4 38.4-17.92 38.4-38.4 38.4zM384 115.2h256c56.32 0 76.8 46.080 76.8 76.8 0 43.52-33.28 76.8-76.8 76.8h-256c-15.36 0-25.6 10.24-25.6 25.6s10.24 25.6 25.6 25.6h256c43.52 0 76.8 33.28 76.8 76.8s-33.28 76.8-76.8 76.8h-256c-15.36 0-25.6 10.24-25.6 25.6s10.24 25.6 25.6 25.6h256c43.52 0 76.8 33.28 76.8 76.8s-33.28 76.8-76.8 76.8h-256c-15.36 0-25.6 10.24-25.6 25.6s10.24 25.6 25.6 25.6h256c43.52 0 76.8 33.28 76.8 76.8h51.2v51.2h-512v-51.2h409.6c0-15.36-10.24-25.6-25.6-25.6h-256c-43.52 0-76.8-33.28-76.8-76.8s33.28-76.8 76.8-76.8h256c15.36 0 25.6-10.24 25.6-25.6s-10.24-25.6-25.6-25.6h-256c-43.52 0-76.8-33.28-76.8-76.8s33.28-76.8 76.8-76.8h256c15.36 0 25.6-10.24 25.6-25.6s-10.24-25.6-25.6-25.6h-256c-43.52 0-76.8-33.28-76.8-76.8s33.28-76.8 76.8-76.8h256c15.36 0 25.6-10.24 25.6-25.6 0-12.8-5.12-25.6-25.6-25.6h-256c-56.32 0-76.8-46.080-76.8-76.8h-51.2v-51.2h512v51.2h-409.6c0 12.8 5.12 25.6 25.6 25.6zM128 780.8c-15.36 0-25.6-10.24-25.6-25.6s10.24-25.6 25.6-25.6c15.36 0 25.6 10.24 25.6 25.6s-10.24 25.6-25.6 25.6zM857.6 591.36l-40.96-30.72 69.12-87.040h-117.76v-51.2h117.76l-69.12-87.040 40.96-30.72 115.2 143.36-115.2 143.36z" />
<glyph unicode="&#xe902;" glyph-name="arrow-down" d="M512 89.6l256 179.2-28.16 40.96-202.24-140.8v637.44h-51.2v-637.44l-202.24 140.8-28.16-40.96z" />
<glyph unicode="&#xe903;" glyph-name="arrow-left" d="M153.6 448l179.2 256 40.96-28.16-140.8-202.24h637.44v-51.2h-637.44l140.8-202.24-40.96-28.16z" />
<glyph unicode="&#xe904;" glyph-name="arrow-right" d="M870.4 448l-179.2 256-40.96-28.16 140.8-202.24h-637.44v-51.2h637.44l-140.8-202.24 40.96-28.16z" />
<glyph unicode="&#xe905;" glyph-name="arrow-up" d="M512 806.4l-256-179.2 28.16-40.96 202.24 140.8v-637.44h51.2v637.44l202.24-140.8 28.16 40.96z" />
<glyph unicode="&#xe906;" glyph-name="arrows-left-right" d="M242.918 473.728l-41.165 28.109-147.789-211.123 147.789-211.123 41.19 28.058-109.619 157.466h535.040v51.2h-535.040l109.594 157.414zM827.802 809.037l-41.19-28.058 109.619-157.466h-535.040v-51.2h535.040l-109.594-157.389 41.165-28.109 147.789 211.123-147.789 211.098z" />
<glyph unicode="&#xe907;" glyph-name="badge" d="M520.525 678.4c-70.682 0-128-57.318-128-128s57.318-128 128-128c70.682 0 128 57.318 128 128s-57.318 128-128 128zM520.525 473.6c-42.342 0-76.8 34.458-76.8 76.8s34.458 76.8 76.8 76.8 76.8-34.458 76.8-76.8c0-42.342-34.458-76.8-76.8-76.8zM460.006 259.405l-77.44-183.424-37.222 43.494-57.114-3.661 79.898 189.286-24.013 37.35-13.44 5.632-121.83-288.691 114.253 7.347 74.445-86.989 125.645 297.651-2.662 0.819-60.518-18.816zM835.866 136.96l-96.154 223.386 65.971 27.648-14.925 116.992 54.042 104.832-86.63 80.026-25.984 115.021-117.811 5.632-93.85 71.424-93.85-71.424-117.811-5.632-25.984-115.046-86.63-80.026 54.042-104.832-14.925-116.992 108.774-45.568 63.744-99.2 112.614 35.021 112.64-35.021 60.646 94.362 95.053-220.851-57.139 3.277-36.915-43.75-73.446 170.65-64.358 20.019 123.52-286.976 73.83 87.526 114.304-6.554-32.768 76.058zM677.12 389.658l-14.694-6.144-51.302-79.821-90.624 28.186-90.624-28.186-51.302 79.821-87.526 36.659 10.010 78.336 2.022 15.795-43.494 84.352 69.709 64.384 3.507 15.539 17.408 77.030 94.771 4.531 75.52 57.472 75.52-57.472 94.797-4.531 20.915-92.57 69.709-64.384-43.494-84.352 2.022-15.795 10.010-78.336-72.858-30.515z" />
<glyph unicode="&#xe908;" glyph-name="bell" d="M870.4 140.8l-102.4 153.6v256c-0.409 123.288-87.584 226.098-203.636 250.584l-1.676 0.296c0.238 1.456 0.421 3.219 0.508 5.008l0.004 0.112c0 28.277-22.923 51.2-51.2 51.2s-51.2-22.923-51.2-51.2v0c0.091-1.901 0.274-3.664 0.548-5.397l-0.036 0.277c-117.728-24.782-204.903-127.592-205.312-250.835v-256.045l-102.4-153.6h286.31c-2.899-7.599-4.618-16.385-4.71-25.56v-0.040c0-42.415 34.385-76.8 76.8-76.8s76.8 34.385 76.8 76.8v0c-0.092 9.215-1.812 18.001-4.884 26.122l0.173-0.522zM298.598 266.010l8.602 12.8v271.59c0.326 98.647 70.094 180.905 162.961 200.468l1.34 0.236 40.499 8.218 40.499-8.218c94.207-19.799 163.975-102.057 164.301-200.668v-271.55l8.602-12.8 49.331-74.086h-525.466zM537.6 115.2c0-14.138-11.462-25.6-25.6-25.6s-25.6 11.462-25.6 25.6c0 14.138 11.462 25.6 25.6 25.6v0c14.138 0 25.6-11.462 25.6-25.6v0z" />
<glyph unicode="&#xe909;" glyph-name="brake-fluid" d="M819.2 89.6c0-25.6 25.6-51.2 51.2-51.2s51.2 25.6 51.2 51.2c0 51.2-51.2 102.4-51.2 102.4s-51.2-51.2-51.2-102.4zM632.32 276.48c-20.48-20.48-20.48-51.2 0-69.12 20.48-20.48 51.2-20.48 69.12 0s20.48 51.2 0 69.12-48.64 17.92-69.12 0zM343.040 565.76c20.48 20.48 20.48 53.76 0 74.24s-53.76 20.48-74.24 0c-20.48-20.48-20.48-53.76 0-74.24s53.76-20.48 74.24 0zM271.36 276.48c-20.48-20.48-20.48-51.2 0-69.12s51.2-20.48 69.12 0 20.48 51.2 0 69.12-51.2 17.92-69.12 0zM486.4 601.6c-99.84 0-179.2-79.36-179.2-179.2s79.36-179.2 179.2-179.2c99.84 0 179.2 79.36 179.2 179.2s-79.36 179.2-179.2 179.2zM486.4 294.4c-71.68 0-128 56.32-128 128s56.32 128 128 128c71.68 0 128-56.32 128-128s-56.32-128-128-128zM921.6 422.4c0 240.64-194.56 435.2-435.2 435.2v-51.2c-212.48 0-384-171.52-384-384s171.52-384 384-384c212.48 0 384 171.52 384 384h51.2zM486.4 89.6c-184.32 0-332.8 148.48-332.8 332.8s148.48 332.8 332.8 332.8v-102.4c128 0 230.4-102.4 230.4-230.4h102.4c0-184.32-148.48-332.8-332.8-332.8zM762.88 473.6c-20.48 115.2-110.080 204.8-225.28 225.28v104.96c171.52-23.040 307.2-158.72 330.24-330.24h-104.96z" />
<glyph unicode="&#xe90a;" glyph-name="briefcase" d="M640 678.4v102.4h-256v-102.4h-281.6v-563.2h819.2v563.2h-281.6zM435.2 729.6h153.6v-51.2h-153.6v51.2zM870.4 166.4h-716.8v230.4h281.6v-76.8h153.6v76.8h281.6v-230.4zM153.6 448v179.2h716.8v-179.2h-716.8z" />
<glyph unicode="&#xe90b;" glyph-name="brochure" d="M870.4 746.163v111.437l-358.4-153.6-358.4 153.6v-111.437l-76.8 9.037v-665.6l435.2-51.2 435.2 51.2v665.6l-76.8-9.037zM819.2 779.955v-600.525l-294.4-84.122v558.464l7.373 3.149 287.027 123.034zM204.8 779.955l294.4-126.157v-558.464l-294.4 84.096v600.525zM128 135.142v562.483l25.6-3.021v-553.805l51.661-14.771-77.261 9.114zM896 135.142l-77.261-9.088 51.661 14.746v553.805l25.6 3.021v-562.483z" />
<glyph unicode="&#xe90c;" glyph-name="burger" d="M192 268.8h640v-51.2h-640v51.2zM192 473.6h640v-51.2h-640v51.2zM192 678.4h640v-51.2h-640v51.2z" />
<glyph unicode="&#xe90d;" glyph-name="calculator" d="M204.8 883.2v-870.4h640v870.4h-640zM793.6 64h-537.6v537.6h537.6v-537.6zM793.6 652.8h-537.6v179.2h537.6v-179.2zM409.6 524.8h-76.8v-76.8h76.8v76.8zM563.2 524.8h-76.8v-76.8h76.8v76.8zM716.8 524.8h-76.8v-76.8h76.8v76.8zM716.8 780.8h-76.8v-76.8h76.8v76.8zM409.6 371.2h-76.8v-76.8h76.8v76.8zM563.2 371.2h-76.8v-76.8h76.8v76.8zM716.8 371.2h-76.8v-76.8h76.8v76.8zM409.6 217.6h-76.8v-76.8h76.8v76.8zM563.2 217.6h-76.8v-76.8h76.8v76.8zM716.8 217.6h-76.8v-76.8h76.8v76.8z" />
<glyph unicode="&#xe90e;" glyph-name="calendar" d="M793.6 806.4v-51.2h51.2v-614.4h-665.6v614.4h51.2v51.2h-102.4v-716.8h768v716.8h-102.4zM384 857.6h-51.2v-153.6h51.2v153.6zM537.6 857.6h-51.2v-153.6h51.2v153.6zM691.2 857.6h-51.2v-153.6h51.2v153.6zM742.4 345.6h-102.4v-102.4h102.4v102.4zM563.2 345.6h-102.4v-102.4h102.4v102.4zM384 345.6h-102.4v-102.4h102.4v102.4zM742.4 524.8h-102.4v-102.4h102.4v102.4zM563.2 524.8h-102.4v-102.4h102.4v102.4zM384 524.8h-102.4v-102.4h102.4v102.4z" />
<glyph unicode="&#xe90f;" glyph-name="captions-closed-off" d="M51.2 806.4v-716.8h921.6v716.8zM794.368 382.799l40.55-22.851c-74.898-132.352-295.877-94.31-295.877 91.338-0.209 3.062-0.328 6.637-0.328 10.239 0 88.224 71.52 159.744 159.744 159.744 58.133 0 109.013-31.052 136.958-77.474l0.402-0.72-39.601-23.764c-51.83 88.74-206.848 78.016-206.848-68.024s160.758-158.026 205-68.488zM447.744 382.799l40.55-22.851c-74.898-132.352-295.877-94.31-295.877 91.338-0.211 3.075-0.331 6.665-0.331 10.283 0 88.224 71.52 159.744 159.744 159.744 58.15 0 109.044-31.071 136.984-77.517l0.402-0.721-39.601-23.764c-51.83 88.74-206.848 78.016-206.848-68.024s160.74-158.026 204.989-68.488z" />
<glyph unicode="&#xe910;" glyph-name="captions-closed-on" d="M834.56 545.28c-64 122.88-296.96 104.96-299.52-94.72 0-190.653 228.116-223.488 296.96-92.16v2.56l-40.96 23.040h-2.56c-51.2-89.6-199.68-74.24-199.68 66.56 0 153.6 161.28 148.48 202.24 66.56h2.56l40.96 25.6v2.56zM921.6 755.2h-819.2v-614.4h819.2zM972.8 806.4v-716.8h-921.6v716.8zM488.96 545.28c-64 122.88-296.96 105.508-296.96-94.72 0-197.43 234.476-215.148 296.96-89.6v2.56l-40.96 23.040h-2.56c-51.2-89.6-199.68-74.24-199.68 66.56 0 153.6 161.28 148.48 202.24 66.56h2.56l38.4 23.040v2.56z" />
<glyph unicode="&#xe911;" glyph-name="car" d="M145.92 496.64c0 0 10.24 2.56 15.36 0 10.24 0 23.040-5.12 23.040-5.12 10.24 10.24 20.48 2.56 28.16 33.28h235.52c0 0 10.24 15.36 33.28 15.36h58.88c23.040 0 33.28-15.36 33.28-15.36h235.52c7.68-33.28 20.48-25.6 28.16-33.28 0 0 15.36 5.12 20.48 5.12 5.12 2.56 17.92 0 17.92 0-12.8 15.36-30.72 28.16-43.52 51.2 0 0 53.76 2.56 84.48 15.36 0 0 7.68 30.72-7.68 38.4-12.8 7.68-15.36 10.24-28.16 12.8-10.24 2.56-40.96 10.24-43.52-15.36l-2.56-23.040-12.8 2.56c0 0-30.72 81.92-79.36 128 0 0-17.92 23.040-40.96 23.040 0 0-84.48 12.8-192 12.8s-192-12.8-192-12.8c-23.040-2.56-43.52-23.040-43.52-23.040-38.4-43.52-81.92-128-81.92-128l-10.24-2.56-5.12 23.040c-2.56 23.040-33.28 15.36-43.52 15.36-12.8-2.56-15.36-5.12-30.72-12.8s-5.12-38.4-5.12-38.4c28.16-15.36 87.040-15.36 87.040-15.36-5.12-23.040-25.6-35.84-38.4-51.2zM317.44 701.44c74.24 10.24 128 15.36 194.56 15.36 71.68 0 122.88-5.12 197.12-15.36 0 0 58.88-46.080 87.040-143.36h-212.48c0 0-10.24 15.36-35.84 15.36h-66.56c-28.16 0-38.4-15.36-38.4-15.36h-212.48c28.16 97.28 87.040 143.36 87.040 143.36zM115.2 250.88c2.56-115.2 15.36-110.080 20.48-110.080h71.68c17.92 0 17.92 46.080 17.92 46.080 99.84-10.24 202.24-15.36 286.72-12.8 89.6 0 186.88 2.56 289.28 12.8 0 0 0-46.080 15.36-46.080h74.24c2.56 0 17.92-10.24 17.92 107.52 2.56 53.76 0 92.16-2.56 107.52 0 0-7.68-10.24-15.36-15.36-5.12-5.12-17.92-7.68-17.92-7.68 0-30.72-5.12-48.64-5.12-48.64s-15.36-48.64-46.080-61.44c-23.040-7.68-122.88-23.040-312.32-20.48-202.24 0-286.72 15.36-312.32 23.040-33.28 12.8-43.52 61.44-43.52 61.44s-2.56 15.36-2.56 46.080c0 0-15.36 5.12-20.48 7.68s-15.36 10.24-15.36 10.24c2.56-15.36 0-43.52 0-99.84zM512 348.16c40.96 0 135.68 0 145.92 2.56s20.48 2.56 25.6 15.36c5.12 15.36 20.48 53.76 20.48 53.76s2.56 10.24-7.68 10.24h-143.36c0-33.28-17.92-43.52-43.52-43.52-23.040 0-40.96 10.24-40.96 43.52h-143.36c-12.8 0-7.68-10.24-7.68-10.24s12.8-40.96 20.48-53.76c5.12-15.36 15.36-15.36 25.6-15.36v0c12.8-2.56 110.080-2.56 148.48-2.56zM156.16 368.64c33.28-5.12 145.92-10.24 145.92-10.24s-15.36 56.32-30.72 76.8c0 0-35.84 0-51.2 5.12s-48.64 23.040-64 25.6c-15.36 5.12-20.48 2.56-23.040-2.56-2.56-2.56-10.24-48.64-7.68-61.44 2.56-10.24 0-28.16 30.72-33.28zM898.56 404.48c0 12.8-5.12 58.88-5.12 61.44-5.12 5.12-12.8 5.12-28.16 2.56s-46.080-23.040-61.44-25.6c-15.36-5.12-53.76-5.12-53.76-5.12-15.36-20.48-28.16-76.8-28.16-76.8s112.64 5.12 145.92 10.24c30.72 2.56 30.72 20.48 30.72 33.28z" />
<glyph unicode="&#xe912;" glyph-name="car-checkmark" d="M934.144 454.272c-0.896 32.256-12.16 59.187-38.502 78.925-1.613 1.203-3.379 2.56-4.378 4.275-11.469 19.354-22.784 38.835-34.202 58.214-1.587 2.688 0 2.662 1.92 2.842 4.070 0.358 44.186 6.528 59.187 13.056 3.533 1.536 5.658 3.763 7.091 7.373 3.149 7.936 5.555 16.102 7.578 24.371 2.586 10.598 2.534 10.522-6.938 16.41-13.696 8.474-57.754 19.712-71.936 12.928-7.885-3.763-8.269-3.738-7.68-12.339 0.819-11.674 2.432-23.194 5.683-34.765-1.818 0-3.046 0.205-4.198-0.026-5.402-1.101-7.578 1.562-9.498 6.349-5.35 13.44-43.571 95.974-59.75 122.547-12.032 19.763-30.131 27.674-51.482 35.226-24.934 8.832-136.832 10.854-240.64 9.421v-41.421c105.472 0.486 219.469-3.405 238.387-11.238 6.451-2.662 12.134-5.555 16.102-11.725 14.643-22.733 51.379-99.661 68.608-142.054-64.333-7.27-117.709-7.987-163.021-6.451-2.15 0.077-3.968 0.768-5.786 1.69-12.186 6.093-24.422 12.134-36.557 18.304-2.202 1.126-4.352 1.638-6.81 1.638-28.442-0.026-56.858 0-85.299 0-8.525 0-17.075 0-25.6 0v-42.752h100.224c9.574 0 38.682-17.408 46.208-20.070 10.24-3.61 153.114-5.35 198.477 9.088 1.587 0.512 1.741-2.381 26.24-43.187-104.166-21.325-236.698-30.157-263.808-32.23-2.304-0.179-32.256-14.592-43.443-20.378-1.613-0.845-74.931-0.845-76.57 0-6.938 3.584-21.094 10.496-31.386 15.258h-300.723c13.978-3.61 63.155-13.286 78.413-15.565 2.022-0.307 4.736 0.41 5.632-3.046 5.248-20.224 10.675-40.422 16.256-61.389-5.606 1.536-75.878 20.71-106.24 29.107-1.664 0.461-4.403 0.026-4.275 3.277 0.563 15.155 0.154 30.387 3.226 45.389 0.256 1.254 0.691 1.792 1.152 2.304h-43.699c-1.126-6.246-2.048-12.595-2.253-19.328-0.922-32.998-0.154-163.174 16.896-200.883 4.045-8.96 3.686-18.918 3.558-28.723-0.333-29.235 0.128-58.47 4.224-87.501 1.331-9.472 3.098-18.842 7.91-27.366 4.941-8.806 12.058-13.389 22.426-13.338 39.834 0.154 79.667 0.051 119.526 0.077 14.336 0 22.17 5.402 27.008 18.918 5.478 15.309 8.806 75.725 8.934 89.907 0.051 4.224 1.28 5.018 5.248 4.685 68.736-5.53 311.936-12.493 412.928 0 3.942 0.486 5.197-0.461 5.248-4.685 0.128-14.182 3.456-74.598 8.934-89.907 4.838-13.517 12.672-18.918 27.008-18.918 39.834-0.026 79.693 0.077 119.526-0.077 10.368-0.051 17.459 4.531 22.426 13.338 4.787 8.525 6.554 17.894 7.91 27.366 4.122 29.030 4.557 58.266 4.224 87.501-0.102 9.83-0.486 19.789 3.558 28.723 16.947 37.709 17.715 167.859 16.794 200.858zM419.61 436.787c4.634-0.384 32.87-15.59 45.542-21.274 1.331-0.614 92.365-0.614 93.696 0 12.672 5.683 40.909 20.89 45.542 21.274 49.050 3.968 147.891 14.029 148.966 14.029-3.84-14.618-15.386-58.522-16.845-64.282-3.226-12.928-48.307-43.187-62.259-54.426-2.048-1.664-162.253-1.024-162.253-1.024-80.435 0.102-160.179-0.64-162.278 1.024-13.952 11.264-59.008 41.523-62.259 54.426-1.434 5.76-13.005 49.664-16.845 64.282 1.101 0 99.942-10.061 148.992-14.029zM254.541 143.002c-0.282-2.074-0.154-4.173-3.635-4.147-30.234 0.154-60.493 0.128-90.726 0.051-2.662 0-3.482 0.87-3.686 3.456-0.691 8.166-4.352 65.715-3.891 86.758 5.402-0.947 73.446-11.366 102.502-14.182 2.355-0.23 3.226-0.973 3.149-3.43-0.23-6.656-1.459-52.429-3.712-68.506zM867.533 142.336c-0.23-2.586-1.024-3.456-3.686-3.456-30.234 0.077-60.493 0.128-90.726-0.051-3.482-0.026-3.354 2.074-3.635 4.147-2.278 16.102-3.482 61.85-3.686 68.506-0.077 2.458 0.794 3.2 3.149 3.43 29.056 2.816 97.075 13.21 102.502 14.182 0.41-21.043-3.226-78.592-3.917-86.758zM879.642 276.736c-0.512-2.406-1.715-3.226-4.019-3.661-201.011-38.426-572.954-36.429-727.27 0-2.278 0.538-3.507 1.229-4.019 3.661-6.938 32.282-12.006 64.794-12.774 97.894-0.102 4.557 0.973 4.864 5.043 3.738 42.394-11.699 84.813-23.219 127.283-34.688 3.558-0.973 6.579-2.483 9.421-4.787 19.661-15.898 39.398-31.693 59.059-47.59 2.099-1.69 4.198-2.432 6.938-2.432 57.574 0.026 287.821 0.026 345.37 0 2.739 0 4.864 0.742 6.938 2.432 19.661 15.898 39.398 31.693 59.059 47.59 2.842 2.304 5.862 3.84 9.421 4.787 42.445 11.443 84.89 22.989 127.283 34.688 4.070 1.126 5.146 0.819 5.043-3.738-0.742-33.126-5.837-65.613-12.774-97.894zM888.294 422.656c-30.362-8.397-100.634-27.571-106.24-29.107 5.581 20.966 11.008 41.139 16.256 61.389 0.896 3.456 3.61 2.739 5.632 3.046 16.026 2.406 69.862 13.030 80.64 16.179 2.97 0.87 4.096 0.384 4.762-2.867 3.098-15.002 2.662-30.234 3.226-45.389 0.128-3.226-2.586-2.79-4.275-3.251zM435.2 883.2h-358.4v-358.4h358.4v358.4zM384 576h-256v256h256v-256zM346.035 755.2l-106.445-132.173-85.99 67.738 32.589 38.835 47.155-35.149 73.856 93.338 38.835-32.589z" />
<glyph unicode="&#xe913;" glyph-name="car-doors" d="M847.77 795.443c-67.226 9.754-136.269 14.541-203.981 14.541-212.762 0-412.416-47.232-500.966-135.782-40.346-40.32-40.422-99.533-40.422-166.118 0-264.909 318.797-193.075 363.699-422.067l381.67 4.48c0 0 166.118 251.443 0 704.947zM643.789 758.784c55.936 0 111.693-3.354 166.144-9.958 27.981-82.176 44.365-156.979 52.736-224.051h-453.069l-1.715 211.84c70.605 14.234 150.989 22.17 235.904 22.17zM179.021 638.003c40.141 40.141 113.050 72.448 204.979 93.517v-206.72h-230.323c0.358 55.091 3.328 91.213 25.344 113.203zM816.87 141.338l-312.090-3.661c-37.12 101.632-125.491 146.483-198.118 183.373-86.067 43.674-139.162 74.675-150.656 152.55h711.654c12.083-173.082-29.466-286.669-50.79-332.262zM358.4 422.4h-25.6c-14.080 0-25.6-11.52-25.6-25.6s11.52-25.6 25.6-25.6h25.6c14.080 0 25.6 11.52 25.6 25.6s-11.52 25.6-25.6 25.6z" />
<glyph unicode="&#xe914;" glyph-name="car-info" d="M174.080 417.28c-15.36 7.68-30.72 15.36-46.080 25.6-2.56-15.36-5.12-33.28-2.56-38.4 2.56-12.8 0-30.72 33.28-35.84s145.92-10.24 145.92-10.24-5.12 20.48-12.8 40.96c-7.68 0-15.36 0-23.040 0-35.84 0-66.56 5.12-94.72 17.92zM363.52 417.28c-12.8-5.12-25.6-10.24-38.4-12.8 5.12-12.8 10.24-30.72 15.36-38.4 5.12-15.36 15.36-15.36 25.6-15.36v0c10.24-2.56 107.52-2.56 145.92-2.56 40.96 0 135.68 0 145.92 2.56s20.48 2.56 25.6 15.36c5.12 15.36 20.48 53.76 20.48 53.76s2.56 10.24-7.68 10.24h-143.36c0-33.28-17.92-43.52-43.52-43.52-23.040 0-40.96 10.24-40.96 43.52h-81.92c-5.12-5.12-12.8-7.68-23.040-12.8zM911.36 606.72c-12.8 7.68-15.36 10.24-28.16 12.8-10.24 2.56-40.96 10.24-43.52-15.36l-2.56-23.040-12.8 2.56c0 0-30.72 81.92-79.36 128 0 0-17.92 23.040-40.96 23.040 0 0-84.48 12.8-192 12.8-10.24 0-17.92 0-28.16 0 2.56-5.12 5.12-7.68 5.12-12.8 2.56-5.12 5.12-12.8 7.68-20.48 5.12 0 10.24 0 15.36 0 71.68 0 122.88-5.12 197.12-15.36 0 0 58.88-46.080 87.040-143.36h-212.48c0 0-10.24 15.36-35.84 15.36h-46.080c-2.56-10.24-5.12-17.92-10.24-28.16 0-2.56-2.56-2.56-2.56-5.12h53.76c23.040 0 33.28-15.36 33.28-15.36h235.52c7.68-33.28 20.48-25.6 28.16-33.28 0 0 15.36 5.12 20.48 5.12 5.12 2.56 17.92 0 17.92 0-12.8 15.36-30.72 28.16-43.52 51.2 0 0 53.76 2.56 84.48 15.36 0 7.68 7.68 38.4-7.68 46.080zM893.44 343.040c-5.12-5.12-17.92-7.68-17.92-7.68 0-30.72-5.12-48.64-5.12-48.64s-15.36-48.64-46.080-61.44c-23.040-7.68-122.88-23.040-312.32-20.48-202.24 0-286.72 15.36-312.32 23.040-35.84 10.24-46.080 58.88-46.080 58.88s-2.56 15.36-2.56 46.080c0 0-15.36 5.12-20.48 7.68s-15.36 10.24-15.36 10.24c0-15.36-2.56-46.080-2.56-102.4 5.12-112.64 17.92-107.52 23.040-107.52h71.68c17.92 0 17.92 46.080 17.92 46.080 99.84-10.24 202.24-15.36 286.72-12.8 89.6 0 186.88 2.56 289.28 12.8 0 0 0-46.080 15.36-46.080h74.24c2.56 0 17.92-10.24 17.92 107.52 2.56 53.76 0 92.16-2.56 107.52 2.56 2.56-5.12-7.68-12.8-12.8zM898.56 404.48c0 12.8-5.12 58.88-5.12 61.44-5.12 5.12-12.8 5.12-28.16 2.56s-46.080-23.040-61.44-25.6c-15.36-5.12-53.76-5.12-53.76-5.12-15.36-20.48-28.16-76.8-28.16-76.8s112.64 5.12 145.92 10.24c30.72 2.56 30.72 20.48 30.72 33.28zM286.72 744.96h-35.84v-38.4h38.4v38.4zM286.72 673.28h-35.84v-128h38.4v128zM194.56 463.36c23.040-10.24 48.64-15.36 74.24-15.36s51.2 5.12 74.24 15.36c23.040 10.24 43.52 23.040 61.44 40.96s30.72 38.4 40.96 61.44c10.24 23.040 15.36 48.64 15.36 74.24s-5.12 51.2-15.36 74.24c-10.24 23.040-23.040 43.52-40.96 61.44s-38.4 30.72-61.44 40.96c-23.040 10.24-48.64 15.36-74.24 15.36s-51.2-5.12-74.24-15.36c-23.040-10.24-43.52-23.040-61.44-40.96s-30.72-38.4-40.96-61.44c-10.24-23.040-15.36-46.080-15.36-74.24 0-25.6 5.12-51.2 15.36-74.24 10.24-20.48 23.040-40.96 40.96-58.88s38.4-33.28 61.44-43.52zM268.8 793.6c84.48 0 153.6-69.12 153.6-153.6s-69.12-153.6-153.6-153.6-153.6 69.12-153.6 153.6c0 87.040 66.56 153.6 153.6 153.6z" />
<glyph unicode="&#xe915;" glyph-name="car-magnifier" d="M778.24 450.56c0 7.68-2.56 40.96-5.12 40.96-2.56 2.56-7.68 5.12-20.48 2.56-10.24-2.56-30.72-15.36-43.52-17.92-10.24-5.12-38.4-5.12-38.4-5.12-10.24-12.8-20.48-53.76-20.48-53.76s76.8 2.56 99.84 7.68c28.16 5.12 28.16 17.92 28.16 25.6zM785.92 588.8c-7.68 5.12-10.24 7.68-20.48 7.68-7.68 2.56-28.16 7.68-30.72-10.24l-2.56-15.36-7.68 2.56c0 0-20.48 56.32-53.76 89.6 0 0-12.8 15.36-28.16 15.36 0 0-58.88 7.68-133.12 7.68s-128-7.68-128-7.68c-15.36-2.56-28.16-15.36-28.16-15.36-25.6-30.72-56.32-89.6-56.32-89.6l-7.68-2.56-2.56 15.36c-2.56 15.36-23.040 10.24-28.16 10.24-7.68-2.56-10.24-2.56-20.48-7.68s-5.12-25.6-5.12-25.6c20.48-10.24 58.88-10.24 58.88-10.24-7.68-20.48-23.040-28.16-30.72-38.4 0 0 7.68 2.56 10.24 0 7.68 0 15.36-2.56 15.36-2.56 7.68 7.68 12.8 2.56 20.48 23.040h161.28c0 0 7.68 10.24 23.040 10.24h40.96c15.36 0 23.040-10.24 23.040-10.24h161.28c5.12-23.040 12.8-17.92 20.48-23.040 0 0 10.24 5.12 12.8 5.12 2.56 2.56 12.8 0 12.8 0-7.68 10.24-20.48 20.48-28.16 35.84 0 0 38.4 2.56 58.88 10.24-2.56 0 5.12 20.48-7.68 25.6zM560.64 555.52c0 0-7.68 10.24-25.6 10.24h-46.080c-20.48 0-25.6-10.24-25.6-10.24h-145.92c20.48 66.56 61.44 97.28 61.44 97.28 51.2 7.68 89.6 10.24 133.12 10.24 48.64 0 84.48-2.56 135.68-10.24 0 0 40.96-30.72 58.88-97.28h-145.92zM268.8 424.96c23.040-5.12 99.84-7.68 99.84-7.68s-10.24 38.4-20.48 53.76c0 0-25.6 0-35.84 5.12-10.24 2.56-33.28 15.36-43.52 17.92s-12.8 2.56-15.36-2.56c-2.56-2.56-7.68-33.28-5.12-40.96 0-7.68-2.56-20.48 20.48-25.6zM512 412.16c28.16 0 94.72 0 99.84 2.56 7.68 2.56 12.8 2.56 17.92 10.24s12.8 38.4 12.8 38.4 2.56 7.68-5.12 7.68h-97.28c0-23.040-12.8-28.16-28.16-28.16s-28.16 7.68-28.16 28.16h-97.28c-7.68 0-5.12-7.68-5.12-7.68s7.68-28.16 12.8-38.4c5.12-10.24 10.24-10.24 17.92-10.24v0c7.68-2.56 74.24-2.56 99.84-2.56zM773.12 409.6c-5.12-2.56-12.8-5.12-12.8-5.12 0-20.48-5.12-33.28-5.12-33.28s-10.24-33.28-30.72-40.96c-15.36-5.12-84.48-15.36-215.040-12.8-138.24 0-197.12 10.24-215.040 15.36-23.040 5.12-30.72 40.96-30.72 40.96s-2.56 10.24-2.56 30.72c0 0-10.24 2.56-12.8 5.12-5.12 2.56-10.24 7.68-10.24 7.68 0-10.24-2.56-30.72-2.56-71.68 5.12-81.92 15.36-76.8 17.92-76.8h48.64c12.8 0 12.8 30.72 12.8 30.72 69.12-7.68 138.24-10.24 197.12-7.68 61.44 0 128 2.56 199.68 7.68 0 0 0-30.72 10.24-30.72h51.2c2.56 0 12.8-7.68 12.8 74.24 2.56 38.4 0 64-2.56 74.24 2.56 0-2.56-5.12-10.24-7.68zM916.48 81.92l-92.16 102.4c61.44 71.68 97.28 163.84 97.28 263.68 0 225.28-184.32 409.6-409.6 409.6s-409.6-184.32-409.6-409.6 184.32-409.6 409.6-409.6c107.52 0 204.8 40.96 276.48 107.52l92.16-99.84c10.24-10.24 25.6-10.24 35.84 0s10.24 25.6 0 35.84zM512 89.6c-197.12 0-358.4 161.28-358.4 358.4s161.28 358.4 358.4 358.4 358.4-161.28 358.4-358.4c0-197.12-161.28-358.4-358.4-358.4z" />
<glyph unicode="&#xe916;" glyph-name="car-replacement" d="M238.080 512c0 0 7.68 2.56 12.8 0 7.68 0 15.36-2.56 15.36-2.56 7.68 7.68 15.36 2.56 20.48 25.6h176.64c0 0 7.68 10.24 25.6 10.24h43.52c17.92 0 25.6-10.24 25.6-10.24h176.64c5.12-23.040 15.36-20.48 20.48-23.040 0 0 12.8 5.12 15.36 5.12 2.56 2.56 12.8 0 12.8 0-10.24 10.24-23.040 20.48-30.72 38.4 0 0 40.96 2.56 64 12.8 0 0 5.12 23.040-5.12 28.16s-12.8 7.68-20.48 10.24c-7.68 2.56-30.72 7.68-33.28-10.24l-2.56-20.48-10.24 2.56c0 0-23.040 61.44-58.88 97.28 0 0-12.8 15.36-30.72 17.92 0 0-64 10.24-145.92 10.24s-143.36-10.24-143.36-10.24c-17.92-2.56-30.72-17.92-30.72-17.92-28.16-33.28-61.44-97.28-61.44-97.28l-5.12-2.56-2.56 17.92c-2.56 17.92-23.040 12.8-30.72 10.24-10.24-2.56-12.8-2.56-23.040-10.24-10.24-5.12-5.12-28.16-5.12-28.16 20.48-10.24 64-12.8 64-12.8-10.24-17.92-23.040-28.16-33.28-40.96zM366.080 665.6c56.32 7.68 97.28 10.24 145.92 10.24 53.76 0 92.16-2.56 148.48-10.24 0 0 43.52-35.84 64-107.52h-158.72c0 0-7.68 10.24-28.16 10.24h-48.64c-20.48 0-28.16-10.24-28.16-10.24h-158.72c17.92 74.24 64 107.52 64 107.52zM215.040 327.68c0 40.96 0 64 0 74.24 0 0 5.12-5.12 10.24-7.68s15.36-5.12 15.36-5.12c0-23.040 2.56-35.84 2.56-35.84s10.24-38.4 35.84-43.52c17.92-5.12 81.92-15.36 232.96-15.36 140.8 0 217.6 10.24 230.4 17.92 25.6 10.24 35.84 46.080 35.84 46.080s5.12 12.8 5.12 35.84c0 0 7.68 2.56 12.8 5.12 7.68 2.56 12.8 10.24 12.8 10.24 2.56-12.8 5.12-40.96 2.56-81.92 0-89.6-10.24-81.92-12.8-81.92h-56.32c-12.8 0-12.8 35.84-12.8 35.84-76.8-7.68-151.040-10.24-217.6-10.24-64 0-140.8 2.56-215.040 10.24 0 0 0-35.84-12.8-35.84h-53.76c-2.56 0-12.8-5.12-15.36 81.92zM512 401.92c-28.16 0-102.4 0-104.96 2.56v0c-7.68 2.56-15.36 2.56-20.48 12.8s-15.36 40.96-15.36 40.96c0 0-5.12 7.68 5.12 7.68h107.52c0-23.040 15.36-30.72 30.72-30.72 17.92 0 30.72 7.68 30.72 30.72h107.52c7.68 0 5.12-7.68 5.12-7.68s-10.24-30.72-15.36-40.96c-5.12-10.24-12.8-10.24-20.48-12.8s-79.36-2.56-110.080-2.56zM245.76 417.28c-23.040 2.56-23.040 17.92-23.040 25.6-2.56 10.24 2.56 43.52 5.12 46.080 2.56 5.12 7.68 5.12 17.92 2.56 12.8-2.56 35.84-17.92 48.64-20.48 10.24-5.12 38.4-5.12 38.4-5.12 12.8-12.8 23.040-56.32 23.040-56.32s-84.48 2.56-110.080 7.68zM803.84 442.88c-2.56-7.68 0-23.040-25.6-25.6-23.040-5.12-107.52-7.68-107.52-7.68s7.68 40.96 20.48 56.32c0 0 28.16 0 40.96 5.12 10.24 5.12 35.84 17.92 46.080 20.48s17.92 0 20.48-2.56c2.56-2.56 5.12-35.84 5.12-46.080zM512 834.56c-212.48 0-386.56-174.080-386.56-386.56 0-76.8 23.040-151.040 64-209.92l-35.84-35.84c-48.64 69.12-76.8 153.6-76.8 245.76 0 240.64 194.56 435.2 435.2 435.2 89.6 0 174.080-28.16 245.76-74.24l10.24 64 48.64-7.68-17.92-133.12-133.12-17.92-7.68 48.64 64 10.24c-61.44 38.4-133.12 61.44-209.92 61.44zM870.4 693.76c48.64-69.12 76.8-153.6 76.8-245.76 0-240.64-194.56-435.2-435.2-435.2-92.16 0-176.64 25.6-245.76 74.24l-10.24-64-48.64 7.68 17.92 133.12 133.12 17.92 7.68-48.64-64-10.24c61.44-38.4 133.12-61.44 209.92-61.44 212.48 0 386.56 174.080 386.56 386.56 0 76.8-23.040 148.48-64 209.92l35.84 35.84z" />
<glyph unicode="&#xe917;" glyph-name="car-seat" d="M752.896 251.904c-7.68 0-15.462-0.742-23.347-2.33l-238.157-47.642c-1.357 3.763-2.714 7.526-4.429 11.238l-146.739 400.333c-15.77 28.083-45.414 45.312-77.338 45.312-1.587 0-3.174-0.051-4.762-0.128-49.715-2.662-87.501-45.696-83.763-95.386l64.026-419.61c3.61-38.042 20.608-73.37 46.566-97.869 7.142-19.226 25.523-33.024 47.283-33.024h420.403c65.050 0 117.76 52.736 117.76 117.76v3.558c0 66.278-54.118 117.786-117.504 117.786zM438.963 112.41c-11.878-24.013-32.768-40.883-57.293-46.31-5.76-1.28-11.443-1.92-16.845-1.92-43.878 0-71.654 43.469-75.52 84.352l-0.128 1.459-0.23 1.434-63.667 417.28c-0.333 9.626 2.944 18.867 9.344 26.138 6.733 7.654 16.026 12.16 26.189 12.723l2.022 0.051c12.442 0 24.038-6.221 31.002-16.41l145.766-397.619 0.896-1.92c11.597-24.986 11.034-53.862-1.536-79.258zM819.2 130.56c0-36.71-29.85-66.56-66.56-66.56l-284.493-0.358c19.661 24.576 31.206 55.654 31.77 87.808l239.642 47.923c4.429 0.896 8.909 1.331 13.312 1.331 36.557 0 66.304-29.875 66.304-66.611v-3.533zM226.995 680.038c7.757-3.072 15.744-4.531 23.603-4.531 25.446 0 49.536 15.283 59.494 40.397l27.187 79.667c13.056 32.845-2.995 70.067-35.84 83.098-7.731 3.072-15.718 4.531-23.603 4.531-25.446 0-49.51-15.283-59.494-40.397l-27.187-79.667c-13.056-32.845 2.995-70.067 35.84-83.098zM238.746 744.218l0.461 1.178 0.41 1.203 26.624 78.054c2.534 5.402 7.757 7.347 11.622 7.347 1.587 0 3.174-0.307 4.71-0.922 4.070-1.613 6.067-4.608 7.040-6.835 0.947-2.227 1.766-5.734 0.128-9.805l-0.461-1.178-0.41-1.203-26.624-78.054c-2.56-5.376-7.782-7.322-11.622-7.322-1.587 0-3.174 0.307-4.71 0.922-4.070 1.613-6.067 4.608-7.040 6.835-0.947 2.227-1.741 5.709-0.128 9.779zM371.942 166.4c-14.131 0-25.6-11.469-25.6-25.6s11.469-25.6 25.6-25.6 25.6 11.469 25.6 25.6-11.443 25.6-25.6 25.6z" />
<glyph unicode="&#xe918;" glyph-name="car-side" d="M988.8 412.877c-10.010 96.077-135.066 103.117-263.142 118.298-87.731 78.618-205.542 103.526-336.486 103.526-89.498 0-185.165-11.622-281.574-25.702l8.678-11.674c0 0-73.242-68.634-73.242-90.675 0-22.067 0-62.771 0-62.771l-17.434-27.904v-52.326c0-45.875 65.997-50.304 85.325-50.611 9.216-37.965 43.187-66.253 83.994-66.253s74.803 28.288 83.994 66.253h446.387c9.216-37.965 43.187-66.253 83.994-66.253s74.803 28.288 83.994 66.253h21.504c42.598 0 83.507 17.613 83.507 17.613l0.102 68.403c0 0-2.842 5.888-9.6 13.824zM194.918 297.984c-19.558 0-35.482 15.923-35.482 35.482s15.923 35.482 35.482 35.482c19.558 0 35.482-15.923 35.482-35.482s-15.923-35.482-35.482-35.482zM809.318 297.984c-19.558 0-35.482 15.923-35.482 35.482s15.923 35.482 35.482 35.482c19.558 0 35.482-15.923 35.482-35.482s-15.923-35.482-35.482-35.482zM947.174 368.23c-9.933-2.227-21.248-3.968-32.333-3.968h-24.73c-12.442 32.614-43.802 55.885-80.794 55.885s-68.326-23.27-80.794-55.885h-452.813c-12.442 32.614-43.802 55.885-80.794 55.885s-68.352-23.27-80.794-55.91l-0.589-0.026c-15.872 0-29.798 2.97-36.736 5.786v31.283l9.651 15.462 7.782 12.442v68.582c8.499 12.774 33.203 39.834 57.062 62.208l4.403 4.147c77.338 10.65 157.491 19.379 233.446 19.379 137.395 0 233.446-28.749 302.31-90.445l12.058-10.803 16.077-1.92 27.443-3.174c112.23-12.826 186.138-24.602 190.822-69.581l1.638-15.744 7.654-9.011 0.026-14.592z" />
<glyph unicode="&#xe919;" glyph-name="checkmark" d="M156.16 414.72l33.28 38.4 271.36-227.84 368.64 445.44 38.4-33.28-399.36-483.84z" />
<glyph unicode="&#xe91a;" glyph-name="chevron-down" d="M798.72 573.44l-35.84 35.84-250.88-250.88-250.88 250.88-35.84-35.84 286.72-286.72z" />
<glyph unicode="&#xe91b;" glyph-name="chevron-left" d="M637.44 161.28l35.84 35.84-250.88 250.88 250.88 250.88-35.84 35.84-286.72-286.72z" />
<glyph unicode="&#xe91c;" glyph-name="chevron-right" d="M386.56 734.72l-35.84-35.84 250.88-250.88-250.88-250.88 35.84-35.84 286.72 286.72z" />
<glyph unicode="&#xe91d;" glyph-name="chevron-up" d="M225.28 322.56l35.84-35.84 250.88 250.88 250.88-250.88 35.84 35.84-286.72 286.72z" />
<glyph unicode="&#xe91e;" glyph-name="circle-ellipsis" d="M704 486.4v-76.8h-76.8v76.8zM550.4 486.4v-76.8h-76.8v76.8zM396.8 486.4v-76.8h-76.8v76.8zM512 780.8c-183.8 0-332.8-149-332.8-332.8s149-332.8 332.8-332.8c183.8 0 332.8 149 332.8 332.8v0c0 183.8-149 332.8-332.8 332.8v0zM512 832c212.077 0 384-171.923 384-384s-171.923-384-384-384c-212.077 0-384 171.923-384 384v0c0 212.077 171.923 384 384 384v0z" />
<glyph unicode="&#xe91f;" glyph-name="clock" d="M488.96 401.92c-5.12 2.56-7.68 10.24-7.68 15.36v266.24h58.88v-245.76l110.080-79.36-35.84-48.64-125.44 92.16zM847.36 448c0-184.32-148.48-335.36-335.36-335.36-184.32 0-335.36 148.48-335.36 335.36 0 184.32 148.48 335.36 335.36 335.36 184.32 0 335.36-148.48 335.36-335.36v0zM512 832c-212.48 0-384-171.52-384-384s171.52-384 384-384 384 171.52 384 384-171.52 384-384 384z" />
<glyph unicode="&#xe920;" glyph-name="close" d="M762.88 734.72l-250.88-250.88-250.88 250.88-35.84-35.84 250.88-250.88-250.88-250.88 35.84-35.84 250.88 250.88 250.88-250.88 35.84 35.84-250.88 250.88 250.88 250.88z" />
<glyph unicode="&#xe921;" glyph-name="cloud-co2" d="M820.608 306.048c9.421 9.19 16.691 16.64 21.837 22.4 5.094 5.76 16.41 19.789 16.41 35.405s-8.678 43.853-48.691 43.853-47.462-28.339-49.664-42.675l28.902-3.123c2.534 22.144 24.678 22.144 33.101 14.438 8.166-7.475 5.658-22.451-0.896-30.438-5.197-6.349-10.342-13.286-18.995-22.221l-38.63-39.782v-15.104h97.792v26.573h-52.198l11.034 10.675zM374.093 496.691c25.728 0 48-16.819 58.701-41.267l50.509 5.658c-14.592 53.146-59.341 82.534-110.925 82.534-62.848 0-116.378-46.925-116.378-121.139 0-66.893 44.774-121.139 116.378-121.139 56.96 0 100.096 35.43 110.746 83.302l-49.485 5.146c-9.702-24.602-30.797-41.523-59.546-41.523-36.173 0-65.51 25.446-65.51 74.214s29.312 74.214 65.51 74.214zM623.386 543.616c-69.478 0-125.798-54.246-125.798-121.139s56.32-121.139 125.798-121.139 125.798 54.246 125.798 121.139-56.32 121.139-125.798 121.139zM623.386 348.262c-40.422 0-73.216 33.229-73.216 74.214s32.768 74.214 73.216 74.214 73.216-33.229 73.216-74.214-32.768-74.214-73.216-74.214zM755.2 652.8c-7.578 0-15.002-0.512-22.426-1.126-49.741 92.109-147.123 154.726-259.174 154.726-134.093 0-247.040-89.728-282.573-212.352-109.21-23.91-191.027-121.062-191.027-237.466 0-93.926 53.35-175.283 131.328-215.782h737.792c91.418 42.906 154.88 135.526 154.88 243.2 0 148.454-120.346 268.8-268.8 268.8zM857.062 192h-712.474c-57.907 34.662-93.389 96.691-93.389 164.582 0 89.498 63.411 168.32 150.758 187.418l29.747 6.502 8.474 29.261c29.952 103.296 125.952 175.437 233.421 175.437 89.498 0 171.546-48.998 214.144-127.846l15.898-29.466 33.357 2.765c6.963 0.563 12.698 0.947 18.202 0.947 119.987 0 217.6-97.613 217.6-217.6 0-80.205-45.082-154.419-115.738-192z" />
<glyph unicode="&#xe922;" glyph-name="cog" d="M512 601.6c-84.48 0-153.6-69.12-153.6-153.6s69.12-153.6 153.6-153.6 153.6 69.12 153.6 153.6-69.12 153.6-153.6 153.6zM512 345.6c-56.32 0-102.4 46.080-102.4 102.4s46.080 102.4 102.4 102.4 102.4-46.080 102.4-102.4-46.080-102.4-102.4-102.4zM837.12 407.040l84.48 61.44c-2.56 33.28-7.68 66.56-15.36 97.28l-102.4 30.72c-5.12 10.24-10.24 20.48-17.92 28.16l25.6 102.4c-23.040 23.040-46.080 46.080-74.24 64l-97.28-43.52c-10.24 5.12-20.48 7.68-30.72 10.24l-46.080 94.72c-17.92 5.12-35.84 5.12-51.2 5.12s-33.28 0-48.64-2.56l-46.080-94.72c-10.24-2.56-20.48-7.68-30.72-10.24l-97.28 40.96c-28.16-17.92-51.2-38.4-74.24-64l25.6-102.4c-5.12-10.24-12.8-20.48-17.92-30.72l-99.84-30.72c-10.24-30.72-15.36-64-15.36-97.28l84.48-61.44c2.56-10.24 2.56-23.040 5.12-33.28l-58.88-87.040c12.8-30.72 30.72-58.88 48.64-84.48l104.96 5.12c7.68-7.68 17.92-15.36 25.6-23.040l12.8-102.4c28.16-15.36 58.88-25.6 92.16-33.28l76.8 71.68c5.12 0 10.24 0 17.92 0 5.12 0 10.24 0 15.36 0l76.8-71.68c33.28 7.68 64 17.92 92.16 33.28l12.8 104.96c5.12 2.56 7.68 7.68 12.8 10.24s7.68 7.68 12.8 10.24l104.96-5.12c20.48 25.6 35.84 53.76 48.64 84.48l-58.88 87.040c-2.56 15.36 0 25.6 2.56 35.84zM814.080 256l-76.8 5.12-23.040 2.56-20.48-20.48c-2.56-2.56-2.56-2.56-5.12-5.12s-5.12-2.56-7.68-5.12l-5.12-2.56-17.92-12.8v-25.6l-7.68-76.8c-10.24-5.12-20.48-7.68-30.72-10.24l-56.32 51.2-15.36 15.36h-28.16c-2.56 0-5.12 0-10.24 0-2.56 0-5.12 0-7.68 0s-5.12 0-7.68 0h-23.040l-10.24-12.8-56.32-51.2c-10.24 2.56-20.48 7.68-30.72 10.24l-7.68 74.24-2.56 23.040-17.92 12.8c-7.68 5.12-15.36 10.24-23.040 17.92l-15.36 15.36-23.040-2.56-76.8-5.12c-5.12 10.24-10.24 17.92-15.36 28.16l43.52 64 12.8 17.92-5.12 20.48c-2.56 10.24-2.56 17.92-5.12 28.16l-2.56 23.040-17.92 12.8-61.44 46.080c2.56 10.24 2.56 20.48 5.12 30.72l74.24 20.48 20.48 5.12 10.24 20.48c5.12 7.68 10.24 15.36 15.36 25.6l12.8 17.92-5.12 20.48-17.92 74.24c7.68 7.68 15.36 12.8 23.040 20.48l71.68-30.72 20.48-7.68 20.48 7.68c7.68 2.56 17.92 7.68 25.6 10.24l20.48 7.68 7.68 20.48 35.84 69.12c5.12 0 10.24 0 15.36 0s10.24 0 15.36 0l35.84-69.12 10.24-20.48 20.48-7.68c7.68-2.56 17.92-5.12 25.6-10.24l20.48-7.68 20.48 7.68 71.68 30.72c7.68-5.12 15.36-12.8 23.040-20.48l-17.92-74.24-5.12-20.48 12.8-17.92c5.12-7.68 10.24-15.36 15.36-25.6l10.24-20.48 20.48-5.12 74.24-23.040c2.56-10.24 5.12-20.48 5.12-30.72l-64-43.52-17.92-12.8-2.56-23.040c0-10.24-2.56-17.92-5.12-28.16l-5.12-20.48 12.8-17.92 40.96-64c-5.12-7.68-10.24-17.92-15.36-25.6z" />
<glyph unicode="&#xe923;" glyph-name="cookie-settings" d="M307.2 780.8c-14.138 0-25.6-11.462-25.6-25.6s11.462-25.6 25.6-25.6c14.138 0 25.6 11.462 25.6 25.6v0c0 14.138-11.462 25.6-25.6 25.6v0zM102.4 678.4h768v-154.419c20.77-13.48 37.903-30.776 50.797-51.034l0.403-0.678v334.131c0 28.277-22.923 51.2-51.2 51.2v0h-768c-28.277 0-51.2-22.923-51.2-51.2v0-614.4c0-28.277 22.923-51.2 51.2-51.2v0h435.2v51.2h-435.2zM102.4 806.4h768v-102.4h-768zM230.4 780.8c-14.138 0-25.6-11.462-25.6-25.6s11.462-25.6 25.6-25.6c14.138 0 25.6 11.462 25.6 25.6v0c0 14.138-11.462 25.6-25.6 25.6v0zM153.6 780.8c-14.138 0-25.6-11.462-25.6-25.6s11.462-25.6 25.6-25.6c14.138 0 25.6 11.462 25.6 25.6v0c0 14.138-11.462 25.6-25.6 25.6v0zM768 117.555v-15.155c0-7.069 5.731-12.8 12.8-12.8s12.8 5.731 12.8 12.8v0 15.155c15.042 5.431 25.6 19.584 25.6 36.204 0 21.208-17.192 38.4-38.4 38.4s-38.4-17.192-38.4-38.4c0-16.62 10.558-30.773 25.333-36.119l0.267-0.085zM921.6 294.4h-25.6v89.6c0 63.623-51.577 115.2-115.2 115.2s-115.2-51.577-115.2-115.2v0-89.6h-25.6c-28.277 0-51.2-22.923-51.2-51.2v0-204.8c0-28.277 22.923-51.2 51.2-51.2v0h281.6c28.277 0 51.2 22.923 51.2 51.2v0 204.8c0 28.277-22.923 51.2-51.2 51.2v0zM716.8 384c0 35.346 28.654 64 64 64s64-28.654 64-64v0-89.6h-128zM921.6 38.4h-281.6v204.8h281.6z" />
<glyph unicode="&#xe924;" glyph-name="dealer" d="M512 437.76c107.52 0 192 87.040 192 192s-84.48 194.56-192 194.56c-107.52 0-192-87.040-192-192s84.48-194.56 192-194.56zM512 773.12c79.36 0 140.8-64 140.8-140.8s-64-140.8-140.8-140.8-140.8 64-140.8 140.8 61.44 140.8 140.8 140.8zM614.4 407.040h-22.81v-51.2h22.81c84.48 0 153.6-69.12 153.6-153.6v-79.36h-190.285l-62.925 167.834-62.95-167.834h-195.84v79.36c0 84.48 69.12 153.6 153.6 153.6h28.39v51.2h-28.39c-112.64 0-204.8-92.16-204.8-204.8v-130.56h614.4v130.56c0 112.64-92.16 204.8-204.8 204.8zM463.59 355.84l51.2-65.126 51.2 65.126v11.674h-102.4v-11.674z" />
<glyph unicode="&#xe925;" glyph-name="delete" d="M307.2 704h409.6c15.36 0 25.6 10.24 25.6 25.6s-10.24 25.6-25.6 25.6h-76.8v102.4h-256v-102.4h-76.8c-15.36 0-25.6-10.24-25.6-25.6s10.24-25.6 25.6-25.6zM435.2 806.4h153.6v-51.2h-153.6v51.2zM230.4 652.8v-614.4h563.2v614.4h-563.2zM742.4 89.6h-460.8v512h460.8v-512zM460.8 499.2h-51.2v-307.2h51.2v307.2zM614.4 499.2h-51.2v-307.2h51.2v307.2z" />
<glyph unicode="&#xe926;" glyph-name="device-smartphone" d="M691.2 883.2h-332.8c-42.419 0-76.8-34.381-76.8-76.8v-716.8c0-42.419 34.381-76.8 76.8-76.8h332.8c42.419 0 76.8 34.381 76.8 76.8v716.8c0 42.419-34.381 76.8-76.8 76.8zM716.8 89.6c0-14.106-11.494-25.6-25.6-25.6h-332.8c-14.106 0-25.6 11.494-25.6 25.6v716.8c0 14.106 11.494 25.6 25.6 25.6h53.555c5.299-14.874 19.354-25.6 36.045-25.6h153.6c16.691 0 30.771 10.726 36.045 25.6h53.555c14.106 0 25.6-11.494 25.6-25.6v-716.8zM601.6 115.2h-153.6c-7.066 0-12.8-5.734-12.8-12.8s5.734-12.8 12.8-12.8h153.6c7.066 0 12.8 5.734 12.8 12.8s-5.734 12.8-12.8 12.8z" />
<glyph unicode="&#xe927;" glyph-name="document-magnifier" d="M517.12 230.4c61.44 0 107.52 48.64 107.52 107.52s-48.64 107.52-107.52 107.52c-58.88 0-107.52-48.64-107.52-107.52s48.64-107.52 107.52-107.52zM652.8 245.76l166.4-166.4-38.4-40.96-166.4 166.4c-25.6-17.92-58.88-28.16-92.16-28.16-89.6 0-161.28 71.68-161.28 161.28s71.68 161.28 161.28 161.28c89.6 0 161.28-71.68 161.28-161.28-2.56-33.28-12.8-66.56-30.72-92.16zM563.2 760.32v-133.12h133.12l-133.12 133.12zM696.32 64h-491.52v768h358.4l204.8-204.8v-440.32l-51.2 51.2v337.92h-204.8v204.8h-256v-665.6h389.12l51.2-51.2z" />
<glyph unicode="&#xe928;" glyph-name="download" d="M256 140.8h512v-51.2h-512v51.2zM750.080 394.24l-33.28 38.4-179.2-158.72v532.48h-51.2v-532.48l-181.76 158.72-33.28-38.4 240.64-209.92 238.080 209.92z" />
<glyph unicode="&#xe929;" glyph-name="download-list" d="M409.6 348.16v227.84h-51.2v-227.84l-87.040 69.12-30.72-40.96 143.36-115.2 143.36 115.2-30.72 40.96-87.040-69.12zM256 243.2h256v-51.2h-256v51.2zM563.2 473.6h230.4v-51.2h-230.4v51.2zM563.2 576h230.4v-51.2h-230.4v51.2zM563.2 678.4h230.4v-51.2h-230.4v51.2z" />
<glyph unicode="&#xe92a;" glyph-name="drop" d="M514.714 801.434l205.082-380.442c16.819-32.896 25.37-68.096 25.37-104.678 0-127.053-103.347-230.4-230.4-230.4-8.346 0-16.845 0.461-25.267 1.331-101.146 10.675-184.013 88.013-201.549 188.058-8.806 50.278-1.28 100.659 21.248 144.717l205.517 381.414zM514.714 852.813c-16.845 0-33.69-8.166-43.674-24.474l-206.874-384c-26.624-52.019-37.939-113.178-26.624-177.843 21.325-121.856 123.571-217.165 246.605-230.144 10.317-1.101 20.531-1.613 30.618-1.613 155.546 0 281.6 126.080 281.6 281.6 0 46.131-11.315 89.574-30.976 128l-207.002 384c-9.984 16.307-26.829 24.474-43.674 24.474v0z" />
<glyph unicode="&#xe92b;" glyph-name="drop-filled" d="M765.389 444.314l-207.002 384c-19.968 32.64-67.379 32.64-87.347 0l-206.874-384c-26.624-52.019-37.939-113.178-26.624-177.843 21.35-121.856 123.571-217.165 246.605-230.144 169.267-17.869 312.218 114.355 312.218 279.987 0.026 46.157-11.29 89.574-30.976 128z" />
<glyph unicode="&#xe92c;" glyph-name="edit" d="M217.6 102.4l-23.040 12.8 66.56 140.8 84.48-58.88-128-94.72zM711.68 734.72l-353.28-504.32-84.48 58.88 353.28 504.32 84.48-58.88zM829.44 102.4h-460.8v51.2h460.8v-51.2z" />
<glyph unicode="&#xe92d;" glyph-name="engine" d="M793.6 576l-34.125-102.4h-34.125l-34.15 102.4h-76.8v51.2h-102.4v51.2h102.4v51.2h-358.4v-51.2h102.4v-51.2h-102.4v-51.2h-51.2v-140.8h-51.2v89.6h-51.2v-230.4h51.2v89.6h51.2v-140.8h85.325l68.275-102.4h332.8l34.125 102.4h34.125l34.15-102.4h128v435.2h-128zM827.725 192l-34.125 102.4h-102.4l-34.125-102.4h-281.6l-68.275 102.4h-51.2v230.4h51.2v51.2h256v-51.2h93.875l34.125-102.4h102.4l34.125 102.4h42.675v-332.8h-42.675z" />
<glyph unicode="&#xe92e;" glyph-name="engine-oil" d="M409.6 729.6h-204.8v-665.6h563.2v460.8l-358.4 204.8zM716.8 115.2h-460.8v563.2h140.8l320-184.32v-378.88zM409.6 832h-204.8v-51.2h204.8v51.2zM307.2 166.4h358.4v204.8h-358.4v-204.8zM358.4 320h256v-102.4h-256v102.4z" />
<glyph unicode="&#xe92f;" glyph-name="equalsign" d="M192 599.27v-46.541h640v46.541h-640zM192 296.73h640v46.541h-640v-46.541z" />
<glyph unicode="&#xe930;" glyph-name="error" d="M481.28 243.2v64h64v-64h-64zM481.28 376.32v281.6h64v-281.6h-64zM363.52 806.4l-209.92-209.92v-296.96l209.92-209.92h296.96l209.92 209.92v296.96l-209.92 209.92h-296.96zM343.040 857.6h340.48l240.64-240.64v-340.48l-243.2-238.080h-337.92l-240.64 240.64v337.92l240.64 240.64z" />
<glyph unicode="&#xe931;" glyph-name="file" d="M588.8 760.32l133.12-133.12h-133.12v133.12zM281.6 780.8h256v-204.8h204.8v-460.8h-460.8v665.6zM230.4 832v-768h563.2v563.2l-204.8 204.8h-358.4z" />
<glyph unicode="&#xe932;" glyph-name="filter" d="M765.056 755.2l-227.456-289.51v-246.298l-51.2-34.15v280.448l-227.456 289.51h506.112zM870.4 806.4h-716.8l281.6-358.4v-358.4l153.6 102.4v256l281.6 358.4z" />
<glyph unicode="&#xe933;" glyph-name="floppy-disc" d="M789.197 857.6h-686.797v-819.2h819.2v686.797zM332.8 806.4h358.4v-179.2h-358.4zM870.4 89.6h-716.8v716.8h153.6v-204.8h409.6v204.8h51.2l102.4-102.4zM588.8 652.8h51.2v128h-51.2zM307.2 448h409.6v51.2h-409.6zM307.2 320h409.6v51.2h-409.6zM307.2 192h409.6v51.2h-409.6z" />
<glyph unicode="&#xe934;" glyph-name="four-wheel-drive" d="M870.4 627.2v256h-153.6v-99.379h-147.814c-10.547 20.915-31.974 35.379-56.986 35.379s-46.438-14.464-56.986-35.379h-147.814v99.379h-153.6v-256h153.6v102.4h146.202c6.451-14.746 18.253-26.547 32.998-32.998v-497.203c-13.67-5.99-24.678-16.691-31.386-30.003h-147.814v99.405h-153.6v-256h153.6v102.4h146.202c9.882-22.605 32.384-38.4 58.598-38.4s48.717 15.795 58.598 38.4h146.202v-102.4h153.6v256h-153.6v-99.405h-147.814c-6.707 13.312-17.69 24.013-31.386 30.003v497.203c14.746 6.451 26.547 18.253 32.998 32.998h146.202v-102.4h153.6zM512 115.2c-14.131 0-25.6 11.443-25.6 25.6s11.469 25.6 25.6 25.6 25.6-11.443 25.6-25.6-11.469-25.6-25.6-25.6zM512 729.6c-14.131 0-25.6 11.469-25.6 25.6s11.469 25.6 25.6 25.6 25.6-11.469 25.6-25.6-11.469-25.6-25.6-25.6z" />
<glyph unicode="&#xe935;" glyph-name="front-wheel-drive" d="M870.4 627.2v256h-153.6v-99.379h-147.814c-10.547 20.915-31.974 35.379-56.986 35.379s-46.438-14.464-56.986-35.379h-147.814v99.379h-153.6v-256h153.6v102.4h146.202c6.451-14.746 18.253-26.547 32.998-32.998v-497.203c-13.67-5.99-24.678-16.691-31.386-30.003h-147.814v99.405h-153.6v-256h153.6v102.4h146.202c9.882-22.605 32.384-38.4 58.598-38.4s48.717 15.795 58.598 38.4h146.202v-102.4h153.6v256h-153.6v-99.405h-147.814c-6.707 13.312-17.69 24.013-31.386 30.003v497.203c14.746 6.451 26.547 18.253 32.998 32.998h146.202v-102.4h153.6zM256 64h-51.2v153.6h51.2v-153.6zM768 217.6h51.2v-153.6h-51.2v153.6zM512 115.2c-14.131 0-25.6 11.443-25.6 25.6s11.469 25.6 25.6 25.6 25.6-11.443 25.6-25.6-11.469-25.6-25.6-25.6zM512 729.6c-14.131 0-25.6 11.469-25.6 25.6s11.469 25.6 25.6 25.6 25.6-11.469 25.6-25.6-11.469-25.6-25.6-25.6z" />
<glyph unicode="&#xe936;" glyph-name="gauge" d="M512 755.2c-225.28 0-409.6-184.32-409.6-409.6 0-74.24 20.48-143.36 56.32-204.8h709.12c35.84 61.44 56.32 130.56 56.32 204.8-2.56 225.28-186.88 409.6-412.16 409.6zM834.56 192h-645.12c-17.92 40.96-30.72 84.48-33.28 128h74.24v51.2h-74.24c2.56 46.080 15.36 89.6 35.84 130.56l66.56-38.4 25.6 43.52-66.56 38.4c25.6 38.4 58.88 69.12 94.72 94.72l38.4-66.56 43.52 25.6-38.4 66.56c40.96 20.48 84.48 30.72 130.56 35.84v-74.24h51.2v74.24c46.080-2.56 89.6-15.36 130.56-35.84l-38.4-64 43.52-25.6 38.4 66.56c38.4-25.6 69.12-58.88 94.72-94.72l-64-38.4 25.6-43.52 66.56 38.4c20.48-40.96 30.72-84.48 35.84-130.56h-76.8v-51.2h74.24c-2.56-46.080-12.8-89.6-33.28-130.56zM460.8 320c0-28.16 23.040-51.2 51.2-51.2 20.48 0 35.84 10.24 46.080 28.16l107.52 202.24-184.32-138.24c-12.8-7.68-20.48-23.040-20.48-40.96z" />
<glyph unicode="&#xe937;" glyph-name="gear-oil" d="M793.6 281.6c0-20.48 20.48-38.4 38.4-38.4s38.4 20.48 38.4 38.4c0 38.4-38.4 76.8-38.4 76.8s-38.4-38.4-38.4-76.8zM768 576l-153.6-128v2.56c0 40.96-35.84 74.24-76.8 74.24h-102.4v51.2h51.2v51.2h-153.6v-51.2h51.2v-51.2h-128l-43.52 81.92c-10.24 12.8-28.16 20.48-46.080 20.48-35.84 0-64-28.16-64-64v-25.6c0-15.36 7.68-30.72 20.48-40.96l81.92-61.44v-166.4c0-28.16 23.040-51.2 51.2-51.2h309.76c15.36 0 30.72 7.68 40.96 20.48l212.48 286.72h51.2v51.2h-102.4zM204.8 499.2l-51.2 38.4v25.6c0 7.68 5.12 12.8 12.8 12.8 5.12 0 7.68-2.56 7.68-2.56 5.12-5.12 17.92-30.72 30.72-53.76v-20.48zM565.76 268.8v0h-309.76v204.8h281.6c12.8 0 25.6-10.24 25.6-25.6l2.56-97.28 79.36 56.32 76.8 74.24-156.16-212.48z" />
<glyph unicode="&#xe938;" glyph-name="hand-euro" d="M102.4 89.6h153.6v230.4h-153.6v-230.4zM153.6 268.8h51.2v-128h-51.2v128zM844.8 437.76v0c-17.92 0-33.28-5.12-48.64-17.92-5.12-5.12-15.36-10.24-25.6-17.92-20.48-15.36-51.2-38.4-84.48-61.44-12.8 15.36-30.72 30.72-66.56 30.72h-2.56c-12.8 0-25.6-2.56-46.080-5.12-28.16-5.12-69.12-12.8-135.68-20.48-2.56 0-5.12 0-7.68 0-23.040-2.56-64-5.12-99.84-40.96l-20.48-15.36v-20.48l2.56-128v-48.64l48.64-2.56c5.12 0 12.8 0 23.040 0 12.8 0 30.72 0 51.2 0 33.28 0 76.8 0 133.12 0 222.72 0 353.28 212.48 355.84 253.44v0 0c0 40.96-23.040 94.72-76.8 94.72zM565.76 140.8c-92.16 0-151.040-2.56-186.88-2.56-7.68 0-15.36 0-20.48 0v130.56c25.6 25.6 53.76 23.040 76.8 25.6 115.2 10.24 156.16 25.6 176.64 25.6 0 0 0 0 2.56 0 28.16 0 30.72-15.36 38.4-23.040-46.080-40.96-115.2-40.96-115.2-40.96v-25.6c110.080 0 248.32 120.32 286.72 148.48 7.68 5.12 15.36 7.68 20.48 7.68 20.48 0 25.6-33.28 25.6-40.96 0-5.12-102.4-204.8-304.64-204.8zM665.6 616.96l-61.44 7.68c-23.040-69.12-125.44-66.56-145.92 0h92.16v28.16h-97.28c0 2.56 0 5.12 0 10.24 0 2.56 0 5.12 0 7.68h97.28v30.72h-92.16c23.040 71.68 120.32 71.68 145.92 2.56l61.44 7.68c-38.4 140.8-240.64 135.68-276.48-10.24h-28.16v-30.72h23.040c0 0 0-17.92 0-20.48h-23.040v-30.72h28.16c38.4-143.36 245.76-138.24 276.48-2.56z" />
<glyph unicode="&#xe939;" glyph-name="headset" d="M870.4 494.080v5.12c0 197.12-161.28 358.4-358.4 358.4s-358.4-161.28-358.4-358.4v-5.12c-30.72-10.24-51.2-38.4-51.2-71.68v-102.4c0-43.52 33.28-76.8 76.8-76.8h25.6c0-99.84 79.36-179.2 179.2-179.2h58.88c7.68-15.36 25.6-25.6 43.52-25.6h51.2c28.16 0 51.2 23.040 51.2 51.2s-23.040 51.2-51.2 51.2h-51.2c-17.92 0-35.84-10.24-43.52-25.6h-58.88c-71.68 0-128 56.32-128 128v256c0 0-20.48 0-51.2 0 0 168.96 138.24 307.2 307.2 307.2s307.2-138.24 307.2-307.2c-30.72 0-51.2 0-51.2 0v-256c0 0 33.28 0 76.8 0s76.8 33.28 76.8 76.8v102.4c0 33.28-20.48 61.44-51.2 71.68zM179.2 294.4c-15.36 0-25.6 10.24-25.6 25.6v102.4c0 15.36 10.24 25.6 25.6 25.6h25.6v-153.6h-25.6zM870.4 320c0-15.36-10.24-25.6-25.6-25.6h-25.6v153.6h25.6c15.36 0 25.6-10.24 25.6-25.6v-102.4z" />
<glyph unicode="&#xe93a;" glyph-name="hybrid" d="M384 87.040c-121.933 1.050-209.92 89.6-227.84 189.44-7.68 51.2 0 99.84 20.48 145.92l204.8 381.44 123.878-230.4h57.882l-138.24 256c-10.24 15.36-25.6 25.6-43.52 25.6s-33.28-7.68-43.52-25.6l-207.36-384c-25.6-51.2-38.4-112.64-25.6-176.64 20.48-122.88 131.584-232.96 276.48-232.96 97.28 0 184.32 51.2 235.52 128-15.36 7.68-28.16 17.92-40.96 30.72-38.4-66.56-110.080-108.237-192-107.52zM844.8 522.24v102.4c0 15.36-10.24 25.6-25.6 25.6s-25.6-10.24-25.6-25.6v-102.4h-102.4v102.4c0 15.36-10.24 25.6-25.6 25.6s-25.6-10.24-25.6-25.6v-102.4h-76.8v-179.2c0-84.48 69.12-153.6 153.6-153.6v-153.6h51.2v153.6c84.48 0 153.6 69.12 153.6 153.6v179.2c0 0-76.8 0-76.8 0zM870.4 343.040c0-56.32-46.080-102.4-102.4-102.4h-51.2c-56.32 0-102.4 46.080-102.4 102.4v128h256v-128z" />
<glyph unicode="&#xe93b;" glyph-name="info" d="M537.6 261.12h-51.2v256h51.2v-256zM537.6 593.92h-51.2v51.2h51.2v-51.2zM512 115.2c184.32 0 332.8 148.48 332.8 332.8s-148.48 332.8-332.8 332.8-332.8-148.48-332.8-332.8 148.48-332.8 332.8-332.8zM512 64c-212.48 0-384 171.52-384 384s171.52 384 384 384 384-171.52 384-384-171.52-384-384-384z" />
<glyph unicode="&#xe93c;" glyph-name="list" d="M373.76 263.68l112.64 76.8 28.16-43.52-140.8-94.72-143.36 94.72 28.16 43.52 115.2-76.8zM373.76 473.6h76.8v-51.2h-76.8v51.2zM373.76 576h76.8v-51.2h-76.8v51.2zM373.76 678.4h76.8v-51.2h-76.8v51.2zM501.76 473.6h281.6v-51.2h-281.6v51.2zM501.76 576h281.6v-51.2h-281.6v51.2zM501.76 678.4h281.6v-51.2h-281.6v51.2z" />
<glyph unicode="&#xe93d;" glyph-name="list-badge-lines-1" d="M623.728 193.616l-73.542-142.434c-7.78 12.292-16.802 21.074-27.108 26.346-10.3 5.274-22.43 7.338-36.406 6.184l88.494 171.808c-5.104 3.34-10.912 5.67-17.324 6.82l-29.232 4.076-106.24-206.712c-3.098-6.712-3.342-12.394-0.76-17.044 2.586-4.654 7.304-7.266 14.194-7.876 24.616 1.128 41.572 1.952 50.87 2.462 13.948 0.76 17.808-0.788 24.796-11.62 4.654-7.234 13.95-21.698 27.882-43.38 4.632-5.32 9.288-7.962 13.936-7.962 4.646 0 9.054 2.642 13.186 7.962l109.634 211.478-8.408-3.83c-14.434-6.774-31.328-4.956-43.972 3.722zM842.214 492.766c0 66.114-53.2 119.294-119.298 119.294-66.11 0-119.304-53.18-119.304-119.294s53.196-119.294 119.304-119.294c66.1 0 119.298 53.18 119.298 119.294zM722.916 419.958c-40.444 0-72.812 32.376-72.812 72.81s32.37 72.816 72.812 72.816c40.44 0 72.814-32.38 72.814-72.816 0-40.434-32.374-72.81-72.814-72.81zM1018.854 59.704l-105.67 205.664-22.302-3.028c-8.764-1.58-16.456-5.362-22.67-10.942l86.364-167.688c-13.976 1.154-26.114-0.91-36.406-6.184-10.298-5.272-19.356-14.052-27.136-26.346l-71.718 138.956c-11.336-5.544-24.89-5.99-37.102-0.244l-19.574 8.63 112.136-216.28c4.136-5.32 8.528-7.962 13.158-7.962 4.65 0 9.298 2.642 13.948 7.962 13.954 21.684 23.252 36.146 27.9 43.38 6.958 10.832 10.848 12.378 24.794 11.62 9.288-0.512 26.26-1.334 50.874-2.462 6.868 0.612 11.612 3.222 14.19 7.876 2.582 4.652 2.31 10.334-0.786 17.048zM819.742 249.534l19.808 30.734c5.958 8.92 14.894 14.864 25.792 16.856l36.692 4.954c17.838 2.978 31.724 18.836 31.724 36.696v36.678c0 10.912 4.958 20.834 12.888 27.776l27.776 23.794c8.902 12.888 11.882 32.714 1.974 48.58l-19.846 30.738c-5.928 8.934-6.928 19.832-3.952 30.738l9.908 34.708c4.954 17.85-3.954 36.694-19.828 44.622l-32.71 14.862c-9.926 4.968-16.87 12.902-19.848 22.82l-9.908 34.708c-4.954 17.834-22.804 28.746-40.662 26.77l-35.692-4.97c-10.896-1.974-21.804 1.992-29.732 8.92l-27.782 23.808c-13.882 11.898-34.702 11.898-48.586 0l-27.75-23.808c-7.932-6.928-18.84-9.908-29.748-8.92l-35.708 4.97c-17.838 1.976-35.676-8.936-40.644-26.77l-9.924-34.708c-2.976-9.918-10.91-18.84-19.816-22.82l-32.726-14.862c-2.462-1.154-4.68-2.612-6.75-4.194h-337.804c-12.882 0-23.338-10.452-23.338-23.338v-280.062c0-12.888 10.456-23.346 23.338-23.346h447.39c1.522-1.608 2.98-3.308 4.258-5.198l19.81-30.734c9.94-15.882 30.758-21.82 47.608-13.892l32.71 14.878c9.924 3.966 20.82 3.966 30.76 0l33.7-14.878c16.864-7.932 36.678-1.994 46.618 13.89zM180.228 332.146v233.39h303.158l8.146-28.46c2.962-9.908 0.978-21.802-3.978-30.738l-19.83-30.738c-0.682-1.112-1.168-2.266-1.748-3.418h-200.176c-12.88 0-23.338-10.456-23.338-23.342 0-12.882 10.458-23.338 23.338-23.338h210.632l25.994-22.276c7.934-6.942 12.902-17.852 12.902-27.776v-36.678c0-2.282 0.212-4.484 0.606-6.624h-335.706zM756.684 293.672c-20.998 8.404-44.28 8.404-65.28 0l-0.988-0.392-27.030-12.298-15.984 24.772-0.21 0.292c-12.982 19.494-32.916 32.592-56.128 36.796l-0.96 0.186-28.308 3.936v28.488c0 23.524-10.878 47.104-28.746 62.752l-0.18 0.154-21.808 18.69 16.398 25.374 0.728 1.356c10.97 19.738 14.434 44.306 7.958 66.294l-7.84 27.484 24.954 11.35c21.36 9.572 38.456 29.16 45.246 51.814l0.094 0.306 7.806 27.35 28.54-3.966 1.092-0.092c23.306-2.124 46.68 4.68 64.366 20.042l21.668 18.566 21.65-18.566c18.282-15.896 42.774-23.766 67.298-19.692l26.686 3.708 7.806-27.35 0.092-0.306c6.744-22.442 22.428-40.432 43.576-51.008l0.762-0.398 25.892-11.758-7.994-27.97-0.094-0.274c-6.414-23.508-3.538-47.988 9.908-68.394l17.172-26.622-18.78-16.092c-18.054-15.784-28.78-38.426-28.78-62.752v-28.458l-29.208-3.95-1.034-0.204c-23.216-4.206-43.152-17.302-56.128-36.796l-0.212-0.292-15.8-24.494-27.444 12.11-0.756 0.304z" />
<glyph unicode="&#xe93e;" glyph-name="list-badge-lines-2" d="M1018.868 59.704l-105.694 205.664-22.28-3.028c-8.778-1.58-16.468-5.362-22.7-10.942l86.368-167.688c-13.982 1.154-26.102-0.91-36.408-6.184-10.302-5.272-19.326-14.052-27.11-26.346l-71.748 138.956c-11.336-5.544-24.858-5.99-37.086-0.244l-19.558 8.63 112.136-216.28c4.122-5.32 8.512-7.962 13.16-7.962 4.646 0 9.294 2.642 13.946 7.962 13.954 21.684 23.236 36.146 27.884 43.38 6.974 10.832 10.832 12.378 24.784 11.62 9.298-0.512 26.254-1.334 50.872-2.462 6.898 0.612 11.608 3.222 14.194 7.876 2.58 4.652 2.338 10.334-0.76 17.048zM623.742 193.616l-73.542-142.434c-7.778 12.292-16.818 21.074-27.11 26.346-10.298 5.274-22.444 7.338-36.404 6.184l88.46 171.808c-5.072 3.34-10.91 5.67-17.306 6.82l-29.248 4.076-106.208-206.712c-3.098-6.712-3.374-12.394-0.792-17.044 2.586-4.654 7.32-7.266 14.208-7.876 24.63 1.128 41.588 1.952 50.884 2.462 13.922 0.76 17.808-0.788 24.77-11.62 4.648-7.234 13.948-21.698 27.894-43.38 4.654-5.32 9.302-7.962 13.952-7.962s9.022 2.642 13.154 7.962l109.65 211.478-8.418-3.83c-14.436-6.774-31.298-4.956-43.944 3.722zM842.214 492.766c0 66.114-53.186 119.294-119.308 119.294-66.1 0-119.28-53.18-119.28-119.294s53.18-119.294 119.28-119.294c66.124 0 119.308 53.18 119.308 119.294zM722.906 419.958c-40.418 0-72.816 32.376-72.816 72.81s32.398 72.816 72.816 72.816c40.45 0 72.824-32.38 72.824-72.816 0-40.434-32.374-72.81-72.824-72.81zM819.724 249.534l19.842 30.734c5.944 8.92 14.864 14.864 25.776 16.856l36.678 4.954c17.868 2.978 31.724 18.836 31.724 36.696v36.678c0 10.912 4.97 20.834 12.902 27.776l27.76 23.794c8.936 12.888 11.912 32.714 1.976 48.58l-19.818 30.738c-5.952 8.934-6.942 19.832-3.976 30.738l9.934 34.708c4.956 17.85-3.98 36.694-19.842 44.622l-32.726 14.862c-9.91 4.968-16.84 12.902-19.818 22.82l-9.922 34.708c-4.968 17.834-22.804 28.746-40.646 26.77l-35.708-4.97c-10.91-1.974-21.816 1.992-29.748 8.92l-27.75 23.808c-10.722 9.178-25.524 11.2-38.106 6.216 0.138 0.062 0.276 0.154 0.408 0.212-3.114 1.55-6.578 2.492-10.316 2.492h-541.46c-12.898 0-23.338-10.452-23.338-23.338v-420.096c0-12.888 10.44-23.346 23.338-23.346h446.86c1.672-1.638 3.434-3.19 4.774-5.198l19.844-30.734c9.906-15.882 30.72-21.82 47.59-13.892l32.728 14.878c9.906 3.966 20.818 3.966 30.726 0l33.73-14.878c16.828-7.93 36.678-1.992 46.584 13.892zM515.922 332.146h-335.694v373.426h393.952c0.014 0 0.014 0 0.032 0.014-4.79-4.42-8.452-10.12-10.302-16.79l-9.91-34.71c-2.978-9.918-10.908-18.84-19.84-22.82l-32.734-14.862c-2.478-1.168-4.71-2.642-6.79-4.25 0.016 0.032 0.044 0.046 0.054 0.058h-228.89c-12.894 0-23.338-10.452-23.338-23.338s10.444-23.338 23.338-23.338h217.586l-1.774 6.248 9.904-34.708c2.978-9.908 1.004-21.802-3.962-30.738l-19.83-30.738c-0.698-1.112-1.186-2.296-1.764-3.45 0 0 0 0.016 0.016 0.032h-200.176c-12.894 0-23.338-10.456-23.338-23.342 0-12.882 10.444-23.338 23.338-23.338h210.632l-1.782 1.52 27.776-23.794c7.934-6.942 12.888-17.852 12.888-27.776v-36.678c0-2.298 0.226-4.532 0.62-6.688-0.012 0.030-0.012 0.042-0.012 0.060zM756.668 293.672c-20.998 8.404-44.25 8.404-65.248 0l-1.004-0.392-27.046-12.298-16.164 25.064c-13.004 19.494-32.916 32.592-56.142 36.796l-0.96 0.186-28.292 3.936v28.488c0 23.524-10.904 47.104-28.778 62.752l-0.182 0.154-21.792 18.69 16.382 25.374 0.744 1.356c10.984 19.738 14.45 44.306 7.958 66.294l-7.856 27.484 24.968 11.35c21.344 9.572 38.456 29.16 45.262 51.814l0.078 0.306 7.82 27.35 28.538-3.966 1.098-0.092c23.304-2.124 46.648 4.68 64.332 20.042l21.668 18.566 21.666-18.566c18.296-15.896 42.764-23.766 67.284-19.692l26.712 3.708 7.808-27.35 0.094-0.306c6.71-22.442 22.396-40.432 43.546-51.008l0.792-0.398 25.862-11.758-7.996-27.97-0.056-0.274c-6.412-23.508-3.556-47.988 9.888-68.394l17.172-26.622-18.798-16.092c-18.022-15.784-28.746-38.426-28.746-62.752v-28.458l-29.206-3.95-1.066-0.204c-23.212-4.206-43.124-17.302-56.128-36.796l-0.18-0.292-15.802-24.494-27.47 12.11-0.76 0.304z" />
<glyph unicode="&#xe93f;" glyph-name="list-badge-lines-3" d="M626.050 193.616l-73.54-142.434c-7.784 12.292-16.822 21.074-27.108 26.346-10.302 5.274-22.444 7.338-36.404 6.184l88.478 171.808c-5.094 3.34-10.912 5.67-17.324 6.82l-29.232 4.076-106.226-206.712c-3.102-6.712-3.36-12.394-0.776-17.044 2.58-4.654 7.322-7.266 14.19-7.876 24.628 1.128 41.586 1.952 50.89 2.462 13.93 0.76 17.802-0.788 24.782-11.62 4.648-7.234 13.946-21.698 27.896-43.38 4.632-5.32 9.282-7.962 13.93-7.962 4.654 0 9.044 2.642 13.178 7.962l109.644 211.478-8.42-3.83c-14.432-6.774-31.314-4.956-43.958 3.722zM844.538 492.766c0 66.114-53.198 119.294-119.308 119.294-66.1 0-119.292-53.18-119.292-119.294s53.194-119.294 119.292-119.294c66.11 0 119.308 53.18 119.308 119.294zM725.228 419.958c-40.432 0-72.812 32.376-72.812 72.81s32.38 72.816 72.812 72.816c40.45 0 72.814-32.38 72.814-72.816 0-40.434-32.364-72.81-72.814-72.81zM1021.174 59.704l-105.678 205.664-22.294-3.028c-8.764-1.58-16.452-5.362-22.678-10.942l86.364-167.688c-13.98 1.154-26.106-0.91-36.406-6.184-10.302-5.272-19.346-14.052-27.124-26.346l-71.732 138.956c-11.338-5.544-24.876-5.99-37.11-0.244l-19.552 8.63 112.136-216.28c4.118-5.32 8.52-7.962 13.154-7.962 4.654 0 9.302 2.642 13.954 7.962 13.948 21.684 23.234 36.146 27.882 43.38 6.97 10.832 10.848 12.378 24.796 11.62 9.296-0.512 26.256-1.334 50.874-2.462 6.882 0.612 11.61 3.222 14.19 7.876 2.586 4.652 2.326 10.334-0.776 17.048zM822.048 249.534l19.83 30.734c5.942 8.92 14.876 14.864 25.784 16.856l36.68 4.954c17.856 2.978 31.728 18.836 31.728 36.696v36.678c0 10.912 4.956 20.834 12.88 27.776l27.784 23.794c8.912 12.888 11.89 32.714 1.972 48.58l-19.83 30.738c-5.942 8.934-6.946 19.832-3.966 30.738l9.924 34.708c4.954 17.85-3.966 36.694-19.832 44.622l-32.728 14.862c-9.908 4.968-16.848 12.902-19.826 22.82l-9.922 34.708c-4.954 17.834-22.794 28.746-40.646 26.77l-35.692-4.97c-10.912-1.974-21.822 1.992-29.756 8.92l-27.76 23.808c-7.672 6.568-17.424 9.374-26.986 8.692v116.926c0 12.882-10.436 23.336-23.338 23.336h-541.46c-12.882 0-23.338-10.456-23.338-23.336v-560.132c0-12.888 10.456-23.346 23.338-23.346h449.7c1.52-1.608 2.994-3.308 4.254-5.198l19.832-30.734c9.922-15.882 30.738-21.82 47.608-13.892l32.71 14.878c9.926 3.966 20.816 3.966 30.74 0l33.714-14.878c16.85-7.93 36.684-1.992 46.602 13.892zM180.228 332.146v513.454h494.784v-123.772l-2.69-2.312c-7.932-6.928-18.846-9.908-29.756-8.92l-34.216 4.758c2.766 3.828 4.422 8.482 4.422 13.552 0 12.888-10.436 23.338-23.338 23.338h-323.634c-12.88 0-23.338-10.452-23.338-23.338 0-12.884 10.458-23.336 23.338-23.336h310.706c-4.776-4.42-8.42-10.12-10.276-16.776l-9.92-34.708c-2.976-9.918-10.91-18.84-19.83-22.82l-32.728-14.862c-2.46-1.154-4.666-2.612-6.748-4.194h-231.204c-12.88 0-23.338-10.452-23.338-23.338s10.458-23.338 23.338-23.338h219.898l8.144-28.46c2.978-9.908 0.988-21.802-3.98-30.738l-19.81-30.738c-0.704-1.112-1.19-2.266-1.748-3.418h-202.504c-12.88 0-23.338-10.456-23.338-23.342 0-12.882 10.458-23.338 23.338-23.338h212.938l26.016-22.276c7.934-6.942 12.888-17.852 12.888-27.776v-36.678c0-2.282 0.212-4.484 0.604-6.624h-338.018zM758.99 293.672c-21 8.404-44.26 8.404-65.26 0l-0.986-0.392-27.048-12.298-15.982 24.772-0.202 0.292c-12.99 19.494-32.91 32.592-56.142 36.796l-0.942 0.186-28.308 3.936v28.488c0 23.524-10.892 47.104-28.762 62.752l-0.186 0.154-21.786 18.69 16.376 25.374 0.73 1.356c10.99 19.738 14.454 44.306 7.964 66.294l-7.84 27.484 24.95 11.35c21.364 9.572 38.476 29.16 45.266 51.814l0.078 0.306 7.82 27.35 28.538-3.966 1.094-0.092c23.306-2.124 46.662 4.68 64.346 20.042l21.674 18.566 21.664-18.566c18.284-15.896 42.758-23.766 67.286-19.692l26.692 3.708 7.902-27.656c6.732-22.442 22.412-40.432 43.562-51.008l0.776-0.398 25.876-11.758-8.066-28.244c-6.41-23.508-3.538-47.988 9.892-68.394l17.168-26.622-18.774-16.092c-18.042-15.784-28.77-38.426-28.77-62.752v-28.458l-29.202-3.95-1.050-0.204c-23.216-4.206-43.136-17.302-56.126-36.796l-0.204-0.292-15.794-24.494-27.458 12.11-0.766 0.304z" />
<glyph unicode="&#xe940;" glyph-name="list-view" d="M256 243.2h332.8v-51.2h-332.8v51.2zM256 396.8h512v-51.2h-512v51.2zM256 550.4h512v-51.2h-512v51.2zM256 704h512v-51.2h-512v51.2z" />
<glyph unicode="&#xe941;" glyph-name="lock" d="M742.4 524.8h-25.6v166.4c0 106.035-85.965 192-192 192s-192-85.965-192-192v-166.4h-25.6c-56.55 0-102.4-45.85-102.4-102.4v-307.2c0-56.55 45.85-102.4 102.4-102.4h435.2c56.55 0 102.4 45.85 102.4 102.4v307.2c0 56.55-45.85 102.4-102.4 102.4zM384 691.2c0 77.645 63.155 140.8 140.8 140.8s140.8-63.155 140.8-140.8v-166.4h-281.6v166.4zM793.6 115.2c0-28.237-22.963-51.2-51.2-51.2h-435.2c-28.237 0-51.2 22.963-51.2 51.2v307.2c0 28.237 22.963 51.2 51.2 51.2h435.2c28.237 0 51.2-22.963 51.2-51.2v-307.2zM524.8 371.2c-35.354 0-64-28.646-64-64 0-20.864 10.138-39.219 25.6-50.918v-51.482c0-21.197 17.203-38.4 38.4-38.4s38.4 17.203 38.4 38.4v51.482c15.462 11.674 25.6 30.029 25.6 50.918 0 35.354-28.646 64-64 64z" />
<glyph unicode="&#xe942;" glyph-name="login" d="M509.44 473.6l-69.12 87.040 40.96 30.72 115.2-143.36-115.2-143.36-40.96 30.72 69.12 87.040h-279.040v51.2h279.040zM716.8 89.6v716.8h76.8v-716.8h-76.8z" />
<glyph unicode="&#xe943;" glyph-name="mail" d="M102.4 678.4v-563.2h819.2v563.2h-819.2zM870.4 166.4h-716.8v409.6l358.4-281.6 358.4 281.6v-409.6zM153.6 627.2h716.8l-358.4-281.6-358.4 281.6z" />
<glyph unicode="&#xe944;" glyph-name="menu" d="M192 678.4h640v-51.2h-640v51.2zM192 473.6h640v-51.2h-640v51.2zM192 268.8h640v-51.2h-640v51.2z" />
<glyph unicode="&#xe945;" glyph-name="minus" d="M128 473.6h768v-51.2h-768v51.2z" />
<glyph unicode="&#xe946;" glyph-name="mobility" d="M311.091 598.835c0.358 0.589 0.768 1.382 1.126 1.946 17.715 29.107 44.211 47.795 81.024 57.165 17.357 4.403 65.024 7.168 115.686 8.832 3.123 31.59 3.277 70.682 2.918 83.968-0.538 19.558-7.373 35.866-23.322 47.846-0.973 0.742-2.048 1.562-2.637 2.586-6.963 11.725-13.798 23.526-20.736 35.277-0.973 1.638 0 1.613 1.178 1.715 2.483 0.23 26.778 3.942 35.866 7.91 2.125 0.922 3.43 2.278 4.301 4.48 1.92 4.813 3.354 9.754 4.582 14.771 1.562 6.426 1.536 6.374-4.198 9.933-8.294 5.146-35.021 11.93-43.597 7.834-4.787-2.278-5.018-2.253-4.659-7.475 0.486-7.066 1.459-14.054 3.43-21.069-1.101 0-1.843 0.128-2.56-0.026-3.277-0.666-4.608 0.947-5.76 3.866-3.251 8.141-26.419 58.163-36.198 74.266-7.296 11.981-18.253 16.768-31.206 21.35-28.109 9.958-238.362 5.683-260.634 0-13.312-3.354-23.936-9.344-31.206-21.325-9.805-16.102-32.973-66.125-36.224-74.266-1.152-2.918-2.483-4.531-5.76-3.866-0.691 0.154-1.434 0.026-2.56 0.026 1.971 7.014 2.944 14.003 3.43 21.069 0.384 5.222 0.154 5.197-4.634 7.475-8.576 4.096-35.302-2.688-43.597-7.834-5.734-3.558-5.786-3.507-4.198-9.933 1.229-5.018 2.662-9.958 4.582-14.771 0.87-2.202 2.176-3.558 4.301-4.48 9.114-3.968 33.408-7.706 35.866-7.936 1.178-0.102 2.125-0.102 1.178-1.715-6.912-11.75-13.773-23.552-20.736-35.277-0.614-1.024-1.664-1.843-2.637-2.586-15.974-11.955-22.784-28.288-23.347-47.846-0.563-19.994-0.077-98.893 10.24-121.754 2.458-5.427 2.227-11.469 2.15-17.408-0.205-17.715 0.077-35.43 2.56-53.043 0.819-5.734 1.894-11.418 4.787-16.589 2.995-5.35 7.296-8.115 13.594-8.090 24.141 0.102 48.282 0.026 72.422 0.051 8.704 0 13.44 3.277 16.358 11.469 3.302 9.267 5.325 45.901 5.402 54.502 0.026 2.56 0.768 3.046 3.174 2.842 29.67-2.381 112.691-5.197 180.25-3.891zM1023.744 283.085c-0.87 31.283-11.802 57.395-37.325 76.544-1.562 1.178-3.277 2.483-4.25 4.122-11.136 18.79-22.093 37.658-33.178 56.448-1.536 2.611 0 2.586 1.869 2.739 3.968 0.358 42.829 6.323 57.395 12.672 3.405 1.485 5.478 3.635 6.861 7.142 3.072 7.706 5.376 15.616 7.347 23.654 2.509 10.266 2.458 10.214-6.733 15.898-13.286 8.218-56.013 19.098-69.76 12.544-7.654-3.661-8.013-3.61-7.45-11.955 0.794-11.315 2.355-22.477 5.504-33.715-1.766 0-2.97 0.205-4.070-0.026-5.222-1.075-7.347 1.536-9.216 6.17-5.197 13.030-42.266 93.056-57.933 118.835-11.674 19.174-29.21 26.829-49.92 34.15-44.979 15.923-381.363 9.088-417.024 0-21.274-5.427-38.272-15.002-49.92-34.15-15.693-25.779-52.736-105.805-57.933-118.835-1.843-4.634-3.994-7.245-9.216-6.17-1.101 0.23-2.304 0.026-4.070 0.026 3.149 11.213 4.71 22.4 5.504 33.715 0.589 8.346 0.205 8.294-7.45 11.955-13.747 6.554-56.474-4.326-69.76-12.544-9.19-5.683-9.242-5.632-6.733-15.898 1.971-8.038 4.275-15.923 7.347-23.654 1.382-3.507 3.456-5.658 6.861-7.142 14.566-6.349 53.427-12.314 57.395-12.672 1.869-0.154 3.405-0.154 1.869-2.739-11.085-18.816-22.042-37.683-33.178-56.448-0.973-1.638-2.662-2.944-4.25-4.122-25.498-19.149-36.403-45.261-37.274-76.544-0.896-32-0.154-158.208 16.384-194.79 3.917-8.678 3.558-18.33 3.456-27.853-0.333-28.339 0.102-56.704 4.096-84.838 1.306-9.19 3.021-18.253 7.654-26.522 4.813-8.55 11.699-12.979 21.734-12.928 38.63 0.154 77.261 0.051 115.891 0.077 13.901 0 21.504 5.248 26.189 18.355 5.299 14.848 8.525 73.421 8.653 87.194 0.051 4.096 1.229 4.864 5.069 4.557 66.637-5.376 302.49-12.134 400.41 0 3.84 0.461 5.043-0.461 5.069-4.557 0.128-13.747 3.354-72.346 8.653-87.194 4.685-13.107 12.262-18.355 26.189-18.355 38.63-0.026 77.261 0.077 115.891-0.077 10.061-0.051 16.947 4.403 21.734 12.928 4.634 8.269 6.349 17.357 7.654 26.522 3.994 28.16 4.429 56.499 4.096 84.838-0.102 9.523-0.461 19.174 3.456 27.853 16.563 36.557 17.331 162.79 16.41 194.79zM392.448 555.034c3.84 5.965 9.702 8.038 15.616 11.366 26.675 15.078 378.624 14.106 412.672 0 6.272-2.586 11.776-5.402 15.616-11.366 14.182-22.042 49.818-96.64 66.534-137.754-62.387-7.040-114.125-7.731-158.080-6.246-2.099 0.077-3.84 0.742-5.632 1.638-11.827 5.914-23.68 11.75-35.456 17.741-2.125 1.075-4.224 1.587-6.605 1.587-27.571-0.026-55.142 0-82.714 0s-55.142-0.026-82.714 0c-2.381 0-4.48-0.512-6.605-1.587-11.776-5.99-23.629-11.827-35.456-17.741-1.766-0.896-3.533-1.562-5.632-1.638-43.93-1.485-95.693-0.794-158.080 6.246 16.717 41.114 52.352 115.712 66.534 137.754zM304.794 379.904c44.006-14.029 182.528-12.314 192.461-8.832 7.296 2.56 35.533 19.456 44.8 19.456h144.691c9.267 0 37.504-16.896 44.8-19.456 9.933-3.482 148.454-5.197 192.461 8.832 1.536 0.486 1.69-2.304 25.446-41.882-101.018-20.659-229.53-29.261-255.821-31.258-2.227-0.179-31.258-14.157-42.138-19.763-1.562-0.819-72.678-0.819-74.24 0-10.854 5.606-39.91 19.61-42.138 19.763-26.266 1.997-154.803 10.573-255.821 31.258 23.782 39.578 23.962 42.368 25.498 41.882zM848.435 279.731c-3.712-14.182-14.925-56.755-16.333-62.336-3.149-12.518-46.848-41.882-60.365-52.787-1.997-1.613-157.338-0.998-157.338-0.998-78.003 0.102-155.341-0.614-157.338 0.998-13.517 10.906-57.216 40.269-60.365 52.787-1.408 5.581-12.621 48.154-16.333 62.336 1.050 0 96.896-9.754 144.461-13.594 4.48-0.358 31.872-15.104 44.16-20.634 1.306-0.589 89.574-0.589 90.88 0 12.288 5.53 39.68 20.275 44.16 20.634 47.514 3.84 143.386 13.594 144.41 13.594zM248.499 299.597c0.64 3.149 1.715 3.635 4.608 2.765 10.47-3.072 62.669-13.363 78.208-15.693 1.946-0.282 4.582 0.384 5.453-2.944 5.069-19.61 10.368-39.194 15.77-59.52-5.453 1.485-73.574 20.070-103.014 28.211-1.613 0.435-4.275 0.026-4.147 3.174 0.512 14.694 0.128 29.44 3.123 44.006zM364.723-18.79c-0.282-2.022-0.154-4.045-3.533-4.019-29.312 0.154-58.65 0.128-87.962 0.026-2.586 0-3.379 0.845-3.584 3.354-0.666 7.91-4.198 63.718-3.789 84.122 5.248-0.922 71.219-11.008 99.379-13.747 2.304-0.23 3.149-0.947 3.072-3.302-0.205-6.451-1.382-50.816-3.584-66.432zM959.155-19.405c-0.205-2.509-0.998-3.354-3.584-3.354-29.338 0.077-58.65 0.128-87.962-0.026-3.379-0.026-3.251 1.997-3.533 4.019-2.202 15.616-3.379 59.981-3.584 66.432-0.077 2.381 0.768 3.098 3.072 3.302 28.186 2.714 94.131 12.826 99.379 13.747 0.41-20.403-3.123-76.211-3.789-84.122zM970.906 110.899c-0.512-2.355-1.664-3.123-3.891-3.533-194.918-37.274-555.597-35.328-705.229 0-2.202 0.512-3.405 1.203-3.891 3.533-6.707 31.309-11.648 62.822-12.39 94.925-0.102 4.403 0.947 4.71 4.89 3.635 41.114-11.341 82.253-22.528 123.418-33.638 3.456-0.922 6.374-2.406 9.139-4.659 19.072-15.411 38.195-30.746 57.267-46.157 2.022-1.638 4.070-2.355 6.733-2.355 55.808 0.026 279.091 0.026 334.899 0 2.662 0 4.71 0.717 6.733 2.355 19.072 15.411 38.195 30.746 57.267 46.157 2.765 2.227 5.683 3.712 9.139 4.659 41.165 11.11 82.304 22.298 123.418 33.638 3.942 1.075 4.992 0.794 4.89-3.635-0.742-32.102-5.683-63.616-12.39-94.925zM979.302 252.416c-29.44-8.141-97.587-26.726-103.014-28.211 5.402 20.326 10.675 39.885 15.77 59.52 0.87 3.354 3.507 2.662 5.453 2.944 15.539 2.33 67.738 12.621 78.208 15.693 2.893 0.845 3.968 0.358 4.608-2.765 2.995-14.541 2.586-29.312 3.123-44.006 0.102-3.174-2.534-2.739-4.147-3.174z" />
<glyph unicode="&#xe947;" glyph-name="natural-gas" d="M293.12 212.941h-28.774c-4.762-28.954-56.064-31.309-56.064 12.262s47.309 39.168 55.424 12.928h29.082c-7.578 62.669-113.587 64.666-113.587-12.928s103.987-74.803 113.92-12.262zM392.525 220.698l-54.938 61.389h-16.179v-113.741h27.802v60.774l54.323-60.774h16.794v113.766h-27.802v-61.414zM447.488 225.203c0-61.594 69.325-70.81 90.675-46.182l6.349-10.675h18.688v64.64h-59.469v-23.245h32.333v-6.963c-11.238-15.974-59.443-19.021-59.443 23.091s50.202 36.122 56.755 20.685h29.875c-19.251 58.65-115.763 46.643-115.763-21.35zM804.198 832h-87.398v-51.2h66.202l25.728-25.728-10.368-7.654c-24.755-18.202-31.155-53.018-11.981-79.949l46.925-63.462c24.704-31.59 57.318-22.144 62.694-20.48v-417.126c0-68.275-102.4-68.275-102.4 0v204.8c0 39.475-37.325 76.8-76.8 76.8h-51.2v358.4c0 28.262-22.938 51.2-51.2 51.2h-486.4c-28.262 0-51.2-22.938-51.2-51.2v-716.8c0-28.262 22.938-51.2 51.2-51.2h486.4c28.262 0 51.2 22.938 51.2 51.2v307.2h51.2c11.469 0 25.6-14.106 25.6-25.6v-204.8c0-136.55 204.8-135.475 204.8 0.026v522.598l-143.002 142.976zM614.4 89.6h-486.4v716.8h486.4v-716.8zM896 641.971l-13.21-8.73c-1.664-1.203-5.99-2.432-8.32 1.229l-46.925 63.462c-1.203 1.613-2.355 6.067 1.28 8.294l12.672 9.395c2.253 1.715 5.222 1.203 7.322-0.64l47.181-47.155v-25.856zM358.246 448c70.682 0 128 57.318 128 128s-57.318 128-128 128c-70.682 0-128-57.318-128-128s57.318-128 128-128zM358.246 652.8c42.342 0 76.8-34.458 76.8-76.8s-34.458-76.8-76.8-76.8c-42.342 0-76.8 34.458-76.8 76.8s34.458 76.8 76.8 76.8z" />
<glyph unicode="&#xe948;" glyph-name="newspaper" d="M243.2 256h409.6v51.2h-409.6v-51.2zM422.4 563.2h-179.2v-51.2h179.2v51.2zM422.4 691.2h-179.2v-51.2h179.2v51.2zM243.2 384h409.6v51.2h-409.6v-51.2zM473.6 486.4h179.2v204.8h-179.2v-204.8zM524.8 640h76.8v-102.4h-76.8v102.4zM780.749 563.2v281.6h-665.549v-716.8c0-56.55 45.85-102.4 102.4-102.4h614.4c56.55 0 102.4 45.85 102.4 102.4v435.2h-153.651zM217.6 76.8c-28.262 0-51.2 22.938-51.2 51.2v665.6h563.149v-665.6h0.051c0-18.739 5.402-36.096 14.208-51.2h-526.208zM883.2 128c0-28.262-22.912-51.2-51.2-51.2s-51.2 22.938-51.2 51.2h-0.051v384h102.451v-384z" />
<glyph unicode="&#xe949;" glyph-name="number" d="M401.92 552.96l15.36-25.6 97.28 51.2v-312.32h35.84v358.4h-23.040l-125.44-71.68zM512 832c-212.48 0-384-171.52-384-384s171.52-384 384-384c212.48 0 384 171.52 384 384s-171.52 384-384 384zM512 115.2c-184.32 0-332.8 148.48-332.8 332.8s148.48 332.8 332.8 332.8c184.32 0 332.8-148.48 332.8-332.8s-148.48-332.8-332.8-332.8z" />
<glyph unicode="&#xe94a;" glyph-name="payment" d="M870.4 729.6h-537.6c-28.16 0-51.2-23.040-51.2-51.2h588.8v-76.8h-76.8v-76.8h76.8v-204.8h-76.8v-51.2h76.8c28.16 0 51.2 23.040 51.2 51.2v358.4c0 28.16-23.040 51.2-51.2 51.2zM691.2 627.2h-537.6c-28.16 0-51.2-23.040-51.2-51.2v-358.4c0-28.16 23.040-51.2 51.2-51.2h537.6c28.16 0 51.2 23.040 51.2 51.2v358.4c0 28.16-23.040 51.2-51.2 51.2zM691.2 217.6h-537.6v204.8h537.6v-204.8zM691.2 499.2h-537.6v76.8h537.6v-76.8z" />
<glyph unicode="&#xe94b;" glyph-name="phone" d="M855.040 821.76v0c0 5.12-5.12 10.24-12.8 10.24-394.24 0-714.24-320-714.24-714.24 0-5.12 5.12-10.24 10.24-12.8l166.4-38.4c5.12-2.56 12.8 2.56 15.36 7.68l76.8 179.2c2.56 5.12 0 10.24-2.56 15.36l-112.64 92.16 7.68 17.92c61.44 130.56 166.4 235.52 294.4 294.4l17.92 7.68 12.8-15.36 79.36-97.28c2.56-5.12 10.24-5.12 15.36-2.56l179.2 76.8c5.12 2.56 7.68 7.68 7.68 15.36l-40.96 163.84zM944.64 668.16c7.68-30.72-7.68-61.44-35.84-74.24l-179.2-76.8c-25.6-10.24-56.32-2.56-74.24 17.92l-66.56 81.92c-104.96-53.76-189.44-140.8-243.2-243.2l81.92-66.56c23.040-17.92 30.72-48.64 17.92-74.24l-76.8-179.2c-12.8-28.16-43.52-43.52-74.24-35.84l-166.4 38.4c-30.72 5.12-51.2 30.72-51.2 61.44 0 422.4 343.040 765.44 765.44 765.44 30.72 0 56.32-20.48 61.44-48.64l40.96-166.4z" />
<glyph unicode="&#xe94c;" glyph-name="piggybank" d="M345.6 576c-20.48 0-38.4-17.92-38.4-38.4s17.92-38.4 38.4-38.4 38.4 17.92 38.4 38.4-17.92 38.4-38.4 38.4zM491.52 683.52l5.12-25.6c12.8 2.56 25.6 2.56 38.4 2.56 53.76 0 104.96-15.36 145.92-38.4l12.8 23.040c-46.080 25.6-99.84 40.96-158.72 40.96-12.8 0-28.16 0-43.52-2.56zM972.8 627.2c0 25.6-10.24 48.64-23.040 64l-40.96-30.72c7.68-7.68 12.8-20.48 12.8-33.28 0-20.48-12.8-38.4-30.72-46.080-58.88 117.76-194.56 199.68-353.28 199.68-33.28 0-66.56-5.12-99.84-12.8-51.2 56.32-117.76 64-156.16 64-20.48 2.56-33.28 0-35.84 0l-53.76-10.24 43.52-168.96c-17.92-20.48-33.28-43.52-46.080-66.56l-87.040-20.48v-232.96l87.040-20.48c23.040-46.080 58.88-84.48 102.4-117.76l-20.48-102.4h222.72l12.8 25.6c10.24 0 20.48 0 30.72 0 33.28 0 69.12 5.12 102.4 12.8l25.6-38.4h179.2v158.72c48.64 56.32 76.8 128 76.8 199.68 0 28.16-5.12 58.88-12.8 84.48 38.4 12.8 64 48.64 64 92.16zM793.6 268.8v-128h-102.4l-30.72 46.080c-38.4-12.8-79.36-20.48-122.88-20.48-20.48 0-40.96 2.56-61.44 5.12l-15.36-30.72h-128l15.36 76.8c-56.32 33.28-99.84 81.92-122.88 135.68l-71.68 17.92v153.6l71.68 17.92c15.36 35.84 38.4 66.56 66.56 94.72l-35.84 143.36c0 0 104.96 20.48 161.28-69.12 38.4 10.24 79.36 17.92 120.32 17.92 184.32 0 332.8-125.44 332.8-281.6 0-69.12-28.16-130.56-76.8-179.2z" />
<glyph unicode="&#xe94d;" glyph-name="pin" d="M512 678.4c43.52 0 76.8-33.28 76.8-76.8s-33.28-76.8-76.8-76.8-76.8 33.28-76.8 76.8 33.28 76.8 76.8 76.8zM514.56 883.2c-156.16 0-281.6-128-281.6-281.6 0-43.52 10.24-87.040 30.72-128 0 0 0-2.56 2.56-2.56l202.24-330.24c10.24-15.36 25.6-23.040 43.52-25.6v0c17.92 0 33.28 10.24 43.52 23.040l207.36 330.24c0 2.56 2.56 2.56 2.56 5.12 28.16 53.76 35.84 115.2 25.6 176.64-20.48 122.88-122.88 217.6-245.76 230.4-10.24 0-20.48 2.56-30.72 2.56v0zM512 166.4l-202.24 330.24c-17.92 33.28-25.6 69.12-25.6 104.96 0 128 102.4 230.4 230.4 230.4 7.68 0 17.92 0 25.6-2.56 102.4-10.24 184.32-87.040 202.24-186.88 7.68-51.2 0-99.84-20.48-145.92l-209.92-330.24zM512 729.6c-71.68 0-128-56.32-128-128s56.32-128 128-128 128 56.32 128 128-56.32 128-128 128v0zM716.8 64h-409.6v-51.2h409.6v51.2z" />
<glyph unicode="&#xe94e;" glyph-name="player-full" d="M476.16 166.4h-245.76v245.76h51.2v-194.56h194.56v-51.2zM793.6 483.84h-51.2v194.56h-194.56v51.2h245.76v-245.76zM512 960c281.6 0 512-230.4 512-512s-230.4-512-512-512-512 230.4-512 512 230.4 512 512 512zM512 908.8c-253.44 0-460.8-207.36-460.8-460.8s207.36-460.8 460.8-460.8 460.8 207.36 460.8 460.8-207.36 460.8-460.8 460.8z" />
<glyph unicode="&#xe94f;" glyph-name="player-minimize" d="M424.96 115.2h-51.2v194.56h-194.56v51.2h245.76v-245.76zM844.8 535.040h-245.76v245.76h51.2v-194.56h194.56v-51.2zM512 960c281.6 0 512-230.4 512-512s-230.4-512-512-512-512 230.4-512 512 230.4 512 512 512zM512 908.8c-253.44 0-460.8-207.36-460.8-460.8s207.36-460.8 460.8-460.8 460.8 207.36 460.8 460.8-207.36 460.8-460.8 460.8z" />
<glyph unicode="&#xe950;" glyph-name="player-pause" d="M588.8 678.4h51.2v-460.8h-51.2v460.8zM435.2 678.4v-460.8h-51.2v460.8h51.2zM512 960c281.6 0 512-230.4 512-512s-230.4-512-512-512-512 230.4-512 512 230.4 512 512 512zM512 908.8c-253.44 0-460.8-207.36-460.8-460.8s207.36-460.8 460.8-460.8 460.8 207.36 460.8 460.8-207.36 460.8-460.8 460.8z" />
<glyph unicode="&#xe951;" glyph-name="player-play" d="M788.48 448l-378.88-256v512l378.88-256zM696.32 448l-235.52 158.72v-317.44l235.52 158.72zM512 960c281.6 0 512-230.4 512-512s-230.4-512-512-512-512 230.4-512 512 230.4 512 512 512zM512 908.8c-253.44 0-460.8-207.36-460.8-460.8s207.36-460.8 460.8-460.8 460.8 207.36 460.8 460.8-207.36 460.8-460.8 460.8z" />
<glyph unicode="&#xe952;" glyph-name="player-reload" d="M752.64 486.4c-17.92 138.24-135.68 243.2-279.040 243.2-156.16 0-281.6-125.44-281.6-281.6 0-153.6 120.32-276.48 271.36-281.6v51.2c-122.88 5.12-220.16 104.96-220.16 230.4 0 128 102.4 230.4 230.4 230.4 115.2 0 209.92-81.92 227.84-192h-99.84l128-115.2 102.4 115.2h-79.36z" />
<glyph unicode="&#xe953;" glyph-name="player-stop" d="M640 576v-256h-256v256h256zM512 960c-281.6 0-512-230.4-512-512s230.4-512 512-512 512 230.4 512 512-230.4 512-512 512v0zM512-12.8c-253.44 0-460.8 207.36-460.8 460.8s207.36 460.8 460.8 460.8 460.8-207.36 460.8-460.8-207.36-460.8-460.8-460.8v0zM691.2 627.2h-358.4v-358.4h358.4v358.4z" />
<glyph unicode="&#xe954;" glyph-name="plug" d="M665.6 652.8v153.6c0 14.131-11.469 25.6-25.6 25.6s-25.6-11.469-25.6-25.6v-153.6h-204.8v153.6c0 14.131-11.469 25.6-25.6 25.6s-25.6-11.469-25.6-25.6v-153.6h-107.52v-230.4c0-113.101 91.699-204.8 204.8-204.8h30.72v-204.8h51.2v204.8h30.72c113.101 0 204.8 91.699 204.8 204.8v230.4h-107.52zM721.92 422.4c0-84.685-68.915-153.6-153.6-153.6h-112.64c-84.685 0-153.6 68.915-153.6 153.6v179.2h419.84v-179.2z" />
<glyph unicode="&#xe955;" glyph-name="plus" d="M896 473.6v-51.2h-358.4v-358.4h-51.2v358.4h-358.4v51.2h358.4v358.4h51.2v-358.4z" />
<glyph unicode="&#xe956;" glyph-name="printer" d="M768 652.8v153.6h-512v-153.6h-153.6v-435.2h153.6v-128h512v128h153.6v435.2h-153.6zM307.2 755.2h409.6v-102.4h-409.6v102.4zM716.8 140.8h-409.6v256h409.6v-256zM870.4 268.8h-102.4v179.2h-512v-179.2h-102.4v332.8h716.8v-332.8zM614.4 345.6h-204.8v-51.2h204.8v51.2zM614.4 243.2h-204.8v-51.2h204.8v51.2z" />
<glyph unicode="&#xe957;" glyph-name="quality" d="M901.12 573.44l-125.44 66.56-25.6 138.24-135.68-17.92-102.4 97.28-102.4-97.28-138.24 20.48-25.6-138.24-125.44-66.56 64-128-61.44-125.44 125.44-66.56 25.6-138.24 138.24 20.48 102.4-97.28 102.4 97.28 138.24-20.48 25.6 138.24 125.44 66.56-66.56 125.44 61.44 125.44zM834.56 343.040l-102.4-53.76-20.48-115.2-115.2 15.36-84.48-79.36-84.48 81.92-115.2-15.36-20.48 115.2-102.4 53.76 51.2 104.96-51.2 104.96 102.4 53.76 20.48 115.2 115.2-15.36 84.48 76.8 84.48-81.92 115.2 15.36 20.48-115.2 102.4-53.76-51.2-104.96 51.2-102.4zM471.040 355.84l-97.28 74.24-15.36-20.48 115.2-89.6 181.76 215.040-20.48 15.36-163.84-194.56z" />
<glyph unicode="&#xe958;" glyph-name="save-cloud" d="M475.648 840.704c0.021 0 0.046 0 0.070 0 105.771 0 197.81-58.796 245.216-145.487l0.73-1.457c7.168 0 14.080 0 21.248 0 139.977-1.838 252.743-115.74 252.743-255.979 0-100.805-58.264-188.002-142.954-229.752l-1.501-0.669h-168.96v48.64h157.696c66.936 35.094 111.818 104.091 111.818 183.57 0 114.098-92.494 206.592-206.592 206.592-0.971 0-1.941-0.007-2.909-0.020l0.147 0.002h-17.152l-31.744-2.816-15.104 28.16c-39.665 72.869-115.672 121.493-203.036 121.493-104.873 0-193.381-70.068-221.263-165.945l-0.406-1.628-7.936-27.648-28.416-6.144c-82.498-18.571-143.2-91.214-143.2-178.035 0-66.211 35.303-124.176 88.113-156.099l0.816-0.458h397.568v-48.64h-409.6c-75.312 38.93-125.903 116.227-125.903 205.34 0 110.090 77.212 202.145 180.437 224.968l1.53 0.284c34.849 117.489 141.837 201.728 268.501 201.728 0.015 0 0.030 0 0.045 0h-0.002zM621.312 524.8l113.152-99.584 64.512-51.2-30.976-36.608-121.6 102.4v-384h-48.64v384l-124.16-102.4-32 36.352z" />
<glyph unicode="&#xe959;" glyph-name="save-local" d="M951.040 779.008h-662.016v-295.936h217.6l-113.408 137.984 40.448 35.072 167.424-199.936-110.592-125.696-56.832-71.68-40.448 35.584 113.408 135.168h-217.6v-312.576h662.016zM998.4 826.368v-756.736h-756.736v358.4h-216.064v55.040h216.064v343.296z" />
<glyph unicode="&#xe95a;" glyph-name="search" d="M225.28 517.12c0 120.32 97.28 217.6 217.6 217.6s217.6-97.28 217.6-217.6-97.28-217.6-217.6-217.6c-120.32 0-217.6 97.28-217.6 217.6zM849.92 145.92l-199.68 199.68c38.4 46.080 61.44 107.52 61.44 171.52 0 148.48-120.32 268.8-268.8 268.8s-268.8-120.32-268.8-268.8 120.32-268.8 268.8-268.8c64 0 125.44 23.040 171.52 61.44l199.68-199.68 35.84 35.84z" />
<glyph unicode="&#xe95b;" glyph-name="share" d="M657.92 140.8c33.28 0 58.88 25.6 58.88 58.88s-25.6 58.88-58.88 58.88c-33.28 0-58.88-25.6-58.88-58.88-2.56-33.28 25.6-58.88 58.88-58.88zM657.92 611.84c33.28 0 58.88 25.6 58.88 58.88s-25.6 58.88-58.88 58.88c-33.28 0-58.88-25.6-58.88-58.88-2.56-33.28 25.6-58.88 58.88-58.88zM314.88 376.32c33.28 0 58.88 25.6 58.88 58.88s-25.6 58.88-58.88 58.88-58.88-25.6-58.88-58.88c0-33.28 25.6-58.88 58.88-58.88zM583.68 281.6c20.48 17.92 46.080 28.16 74.24 28.16 61.44 0 110.080-48.64 110.080-110.080s-48.64-110.080-110.080-110.080-110.080 48.64-110.080 110.080c0 12.8 2.56 28.16 7.68 38.4l-17.92 12.8-148.48 102.4c-20.48-15.36-43.52-25.6-71.68-25.6-61.44 0-110.080 48.64-110.080 110.080s48.64 110.080 110.080 110.080c28.16 0 53.76-10.24 74.24-28.16l163.84 112.64c-5.12 12.8-7.68 25.6-7.68 40.96 0 61.44 48.64 110.080 110.080 110.080s110.080-51.2 110.080-112.64c0-61.44-48.64-110.080-110.080-110.080-28.16 0-53.76 10.24-74.24 28.16l-163.84-112.64c5.12-12.8 7.68-25.6 7.68-40.96s-2.56-28.16-7.68-40.96l148.48-102.4 15.36-10.24z" />
<glyph unicode="&#xe95c;" glyph-name="social-facebook" d="M512 832.768c-212.070 0-384-171.93-384-384 0-191.667 140.416-350.515 323.994-379.341v268.339h-97.51v111.002h97.51v84.608c0 96.23 57.318 149.402 145.050 149.402 42.010 0 85.965-7.501 85.965-7.501v-94.49h-48.41c-47.693 0-62.566-29.594-62.566-59.955v-72.038h106.496l-17.024-111.002h-89.472v-268.339c183.552 28.8 323.968 187.648 323.968 379.315 0 212.096-171.93 384-384 384z" />
<glyph unicode="&#xe95d;" glyph-name="social-instagram" d="M512 631.782c-101.427-0.128-183.578-82.406-183.578-183.936s82.15-183.782 183.578-183.936c101.427 0.128 183.578 82.406 183.578 183.936s-82.15 183.808-183.578 183.936zM512 328.448c-65.792 0.128-119.091 53.53-119.091 119.398s53.299 119.245 119.091 119.398c65.792-0.128 119.091-53.53 119.091-119.398 0-65.843-53.299-119.245-119.091-119.398zM702.848 682.061c-23.731 0-42.957-19.226-42.957-42.982s19.226-42.982 42.957-42.982 42.957 19.226 42.957 42.982c0 23.757-19.226 42.982-42.957 42.982zM869.914 447.514c0 151.731 6.579 231.398-60.083 298.112-70.144 70.195-173.261 60.288-297.574 60.288-119.68 0-227.942 9.907-298.086-60.288-66.637-66.714-60.083-146.381-60.083-298.112s-9.907-227.558 60.237-297.754c66.662-66.688 141.082-59.955 297.754-59.955s230.912-6.733 297.574 59.955c70.17 70.195 60.262 146.048 60.262 297.754zM764.058 195.379c-44.365-44.39-88.064-41.523-252.058-41.523s-208.845-2.406-252.467 41.242-41.216 108.134-41.216 252.646-2.586 208.205 39.040 249.882 61.184 44.032 254.643 44.032c202.496 0 215.936-5.274 254.643-44.006 38.682-38.733 39.066-83.84 39.066-249.882s2.714-207.974-41.651-252.39z" />
<glyph unicode="&#xe95e;" glyph-name="social-linkedin" d="M763.341 193.715h-107.085v166.579c0 38.656 0 89.242-56.499 89.242s-62.464-41.626-62.464-86.246v-169.549h-107.059v342.016h101.146v-47.59c14.874 26.778 47.59 56.499 101.146 56.499 107.085 0 127.898-71.373 127.898-163.584l2.918-187.366zM311.245 583.347c-32.717 0-62.464 26.778-62.464 62.464 0 32.717 26.778 62.464 62.464 62.464s62.464-26.778 62.464-62.464c0-35.686-26.778-62.464-62.464-62.464zM364.774 193.715h-107.059v342.042h107.059v-342.042zM813.901 803.43h-606.771c-29.722 0-53.53-23.808-53.53-50.56v-609.741c0-29.747 23.808-50.56 53.53-50.56h609.741c29.747 0 53.53 23.808 53.53 50.56v609.741c-2.97 26.752-26.778 50.56-56.499 50.56z" />
<glyph unicode="&#xe95f;" glyph-name="social-pinterest" d="M512.307 832c-212.224 0-384.307-171.802-384.307-383.693 0-162.637 101.222-301.568 244.198-357.478-3.482 30.31-6.323 77.056 1.254 110.208 6.963 30.003 44.928 190.746 44.928 190.746s-11.392 23.040-11.392 56.832c0 53.376 31.002 93.158 69.581 93.158 32.896 0 48.717-24.627 48.717-53.99 0-32.845-20.864-82.099-31.949-127.898-9.165-38.221 19.302-69.478 56.934-69.478 68.326 0 120.832 72.013 120.832 175.59 0 91.904-66.099 156.006-160.691 156.006-109.44 0-173.645-81.792-173.645-166.426 0-32.845 12.646-68.198 28.467-87.475 3.174-3.789 3.482-7.27 2.534-11.059-2.842-12.006-9.498-38.221-10.752-43.571-1.587-6.938-5.683-8.525-12.979-5.043-48.077 22.426-78.131 92.211-78.131 148.736 0 120.96 87.936 232.115 254.003 232.115 133.171 0 236.928-94.746 236.928-221.696 0-132.326-83.507-238.746-199.27-238.746-38.912 0-75.597 20.198-87.936 44.211 0 0-19.302-73.267-24.038-91.264-8.55-33.485-31.949-75.162-47.77-100.736 36.045-11.059 74.010-17.050 113.869-17.050 212.224 0 384.307 171.802 384.307 383.693 0.64 212.506-171.443 384.307-383.693 384.307z" />
<glyph unicode="&#xe960;" glyph-name="social-rss" d="M631.194 196.403c0 391.962-354.867 397.261-370.765 397.261v79.437c5.299 0 450.227-5.299 450.227-476.698h-79.462zM459.059 196.403c0 58.266-15.898 105.933-50.33 140.339-58.266 58.266-148.301 58.266-148.301 58.266v79.437c5.299 0 121.805 0 203.93-82.099 47.693-47.693 74.163-113.869 74.163-195.968l-79.462 0.026zM313.395 196.403c-29.158 0-52.966 23.834-52.966 52.966s23.834 52.966 52.966 52.966c29.158 0 52.966-23.834 52.966-52.966s-23.859-52.966-52.966-52.966zM816.589 832h-609.152c-45.005 0-79.437-34.432-79.437-79.437v-609.126c0-45.005 34.432-79.437 79.437-79.437h609.126c45.005 0 79.437 34.432 79.437 79.437v609.126c0.026 45.005-34.406 79.437-79.411 79.437z" />
<glyph unicode="&#xe961;" glyph-name="social-twitter" d="M369.51 135.987c289.818 0 448.333 240.102 448.333 448.333 0 6.81 0 13.619-0.461 20.378 30.848 22.298 57.446 49.92 78.618 81.562-28.749-12.749-59.264-21.094-90.496-24.781 32.896 19.686 57.523 50.662 69.274 87.142-30.925-18.355-64.768-31.283-100.045-38.246-59.674 63.462-159.488 66.509-222.95 6.835-40.934-38.477-58.291-95.821-45.594-150.554-126.694 6.349-244.736 66.202-324.736 164.634-41.83-71.987-20.454-164.096 48.794-210.33-25.088 0.742-49.613 7.501-71.526 19.712 0-0.64 0-1.331 0-1.997 0.026-75.008 52.89-139.597 126.413-154.47-23.194-6.323-47.539-7.245-71.142-2.714 20.634-64.179 79.795-108.16 147.2-109.414-55.808-43.853-124.723-67.661-195.686-67.584-12.544 0.026-25.062 0.768-37.504 2.278 72.064-46.234 155.904-70.758 241.51-70.656z" />
<glyph unicode="&#xe962;" glyph-name="social-vimeo" d="M895.846 625.331c-2.893-75.034-54.835-176.077-155.878-305.997-103.936-135.654-193.408-202.061-265.549-202.061-46.182 0-83.712 40.397-112.589 124.134l-60.621 228.045c-23.091 83.712-46.182 124.134-75.034 124.134-23.091-8.653-43.29-20.198-60.621-37.53l-37.555 43.29c37.53 34.637 75.034 66.381 112.589 101.043 49.075 43.29 89.472 66.381 112.589 69.274 60.621 5.76 95.232-34.637 109.696-121.242 14.438-95.283 25.984-152.986 31.744-176.077 17.331-77.926 37.53-118.349 57.728-118.349 17.331 0 40.397 25.984 72.166 75.034 25.984 34.637 43.29 75.034 51.942 115.482 5.76 43.29-11.546 66.381-51.942 66.381-20.198 0-37.53-5.76-57.728-11.546 37.53 124.134 109.696 184.755 216.499 178.97 77.926-2.867 115.456-54.81 112.563-152.986z" />
<glyph unicode="&#xe963;" glyph-name="social-xing" d="M250.061 681.165c-5.478 0-10.957-2.765-16.435-8.243-2.765-5.478-2.765-10.957 0-16.435l74.035-128.922-117.965-208.435c-2.765-5.478-2.765-10.957 0-16.435s8.243-8.243 13.722-8.243h109.722c16.435 0 24.678 10.957 30.157 21.965l120.678 211.2c-24.678 43.878-52.122 87.757-76.8 131.635-5.478 10.957-13.722 21.965-30.157 21.965l-106.957-0.051zM713.6 832c-16.435 0-24.678-10.957-30.157-21.965l-246.835-436.096 156.339-288c5.478-10.957 13.722-21.939 30.157-21.939h109.722c5.478 0 10.957 2.765 13.722 8.243s2.765 10.957 0 16.435l-156.339 285.235 244.096 433.357c2.765 5.478 2.765 10.957 0 16.435-2.765 5.555-8.269 8.294-13.747 8.294 5.478 0-106.957 0-106.957 0z" />
<glyph unicode="&#xe964;" glyph-name="social-youtube" d="M904.474 645.171c-9.421 35.251-37.171 63.002-72.422 72.422-63.872 17.126-320.051 17.126-320.051 17.126s-256.179 0-320.051-17.126c-35.251-9.421-63.002-37.171-72.422-72.422-17.126-63.872-17.126-197.171-17.126-197.171s0-133.299 17.126-197.171c9.421-35.251 37.171-63.002 72.422-72.422 63.872-17.126 320.051-17.126 320.051-17.126s256.179 0 320.051 17.126c35.251 9.421 63.002 37.171 72.422 72.422 17.126 63.872 17.126 197.171 17.126 197.171s0 133.299-17.126 197.171zM430.080 325.12v245.76l212.813-122.88-212.813-122.88z" />
<glyph unicode="&#xe965;" glyph-name="spark-plug" d="M640 524.8v179.2l-51.2 51.2v76.8h-102.4v-76.8l-51.2-51.2v-179.2h-51.2v-128h76.8v-204.8c0-15.36 10.24-25.6 25.6-25.6h25.6v-25.6h51.2v25.6h25.6v-51.2c0-15.36-10.24-25.6-25.6-25.6h-25.6v-25.6h25.6c28.16 0 51.2 23.040 51.2 51.2v281.6h76.8v128h-51.2zM486.4 683.52l20.48 20.48h58.88l20.48-20.48v-158.72h-102.4v158.72zM588.8 192h-102.4v51.2h102.4v-51.2zM588.8 268.8h-102.4v51.2h102.4v-51.2zM588.8 345.6h-102.4v51.2h102.4v-51.2z" />
<glyph unicode="&#xe966;" glyph-name="speech-bubble" d="M243.2 742.4c-28.16 0-48.64-23.040-48.64-48.64v-302.080c0-28.16 23.040-48.64 48.64-48.64h107.52v-135.68l174.080 135.68h256c28.16 0 48.64 23.040 48.64 48.64v302.080c0 28.16-23.040 48.64-48.64 48.64h-537.6zM299.52 102.4v186.88h-56.32c-56.32 0-99.84 46.080-99.84 99.84v304.64c0 56.32 46.080 99.84 99.84 99.84h537.6c56.32 0 99.84-46.080 99.84-99.84v-302.080c0-56.32-46.080-99.84-99.84-99.84h-238.080l-243.2-189.44z" />
<glyph unicode="&#xe967;" glyph-name="speech-bubble-people" d="M657.92 701.44h51.2v51.2h-51.2v-51.2zM478.72 867.84c-20.48 0-38.4-17.92-38.4-38.4v-204.8c0-20.48 17.92-38.4 38.4-38.4h12.8v-89.6c0-10.24 43.52 20.48 128 89.6h268.8c20.48 0 38.4 17.92 38.4 38.4v204.8c0 20.48-17.92 38.4-38.4 38.4h-409.6zM888.32 624.64h-281.6l-76.8-64v64h-51.2v204.8h409.6v-204.8zM555.52 701.44h51.2v51.2h-51.2v-51.2zM760.32 701.44h51.2v51.2h-51.2v-51.2zM314.88 330.24c64 0 115.2 51.2 115.2 115.2s-51.2 115.2-115.2 115.2-115.2-51.2-115.2-115.2c0-64 51.2-115.2 115.2-115.2zM314.88 522.24c43.52 0 76.8-35.84 76.8-76.8s-33.28-76.8-76.8-76.8-76.8 35.84-76.8 76.8c0 43.52 33.28 76.8 76.8 76.8zM501.76 268.8c-25.6 33.28-66.56 56.32-110.080 56.32h-153.6c-76.8 0-140.8-64-140.8-140.8v-46.080l38.4-38.4h294.4v20.48c0 5.12 0 12.8 0 17.92h-294.4v46.080c0 56.32 46.080 102.4 102.4 102.4h153.6c35.84 0 66.56-17.92 84.48-43.52 5.12 7.68 15.36 17.92 25.6 25.6zM773.12 253.44h-153.6c-76.8 0-140.8-64-140.8-140.8v-46.080l38.4-38.4h355.84l38.4 38.4v46.080c2.56 76.8-61.44 140.8-138.24 140.8zM875.52 66.56h-355.84v46.080c0 56.32 46.080 102.4 102.4 102.4h153.6c56.32 0 102.4-46.080 102.4-102.4v-46.080zM814.080 381.44c0 64-51.2 115.2-115.2 115.2s-115.2-51.2-115.2-115.2c0-64 51.2-115.2 115.2-115.2s115.2 51.2 115.2 115.2zM622.080 381.44c0 40.96 33.28 76.8 76.8 76.8s76.8-35.84 76.8-76.8c0-40.96-33.28-76.8-76.8-76.8s-76.8 33.28-76.8 76.8z" />
<glyph unicode="&#xe968;" glyph-name="speech-bubble-question-mark" d="M780.8 806.4h-537.6c-55.14 0-99.84-44.7-99.84-99.84v0-317.44c0-55.14 44.7-99.84 99.84-99.84v0h56.32v-186.88l243.2 189.44h238.080c55.14 0 99.84 44.7 99.84 99.84v0 314.88c0 55.14-44.7 99.84-99.84 99.84v0zM829.44 391.68c0-26.863-21.777-48.64-48.64-48.64v0h-256l-174.080-135.68v135.68h-107.52c-26.863 0-48.64 21.777-48.64 48.64v0 314.88c0 26.863 21.777 48.64 48.64 48.64v0h537.6c26.863 0 48.64-21.777 48.64-48.64v0zM403.61 615.194l57.498-8.166c10.906 56.806 87.040 53.274 87.040 5.581 0-41.805-53.504-54.349-69.504-59.213v-61.44h52.762l0.41 27.034c46.515 9.651 81.237 49.527 82.888 97.797l0.005 0.174c0 111.744-196.454 123.085-211.098-1.766zM473.984 396.8h63.078v63.078h-63.078z" />
<glyph unicode="&#xe969;" glyph-name="star" d="M512 225.28l-204.8-110.080 38.4 230.4-166.4 163.84 227.84 33.28 104.96 212.48 102.4-209.92 227.84-33.28-166.4-163.84 38.4-230.4-202.24 107.52zM952.32 547.84l-302.080 43.52-138.24 281.6-135.68-281.6-304.64-43.52 220.16-217.6-51.2-307.2 271.36 145.92 271.36-145.92-51.2 307.2 220.16 217.6z" />
<glyph unicode="&#xe96a;" glyph-name="steering-wheel" d="M512 857.6c-226.253 0-409.6-183.347-409.6-409.6 0-226.227 183.347-409.6 409.6-409.6s409.6 183.347 409.6 409.6c0 226.253-183.347 409.6-409.6 409.6zM512 89.6c-197.632 0-358.4 160.768-358.4 358.4s160.768 358.4 358.4 358.4c197.632 0 358.4-160.794 358.4-358.4 0-197.632-160.794-358.4-358.4-358.4zM764.928 522.214c-51.558 37.914-154.394 57.344-256.358 58.701-101.939-1.357-204.749-20.787-256.333-58.701-25.805-59.059-18.509-112.589 0-132.019 0 0 188.902-55.27 188.902-208.538 24.294-13.798 110.592-13.798 134.886 0 0 153.267 188.902 208.538 188.902 208.538 18.483 19.43 25.805 72.96 0 132.019zM508.57 377.037c-37.683 0-68.25 30.541-68.25 68.25 0 37.683 30.541 68.275 68.25 68.275 37.734 0 68.275-30.592 68.275-68.275 0-37.709-30.566-68.25-68.275-68.25z" />
<glyph unicode="&#xe96b;" glyph-name="support" d="M614.4 371.2h-204.8c-112.64 0-204.8-92.16-204.8-204.8v-128h614.4v128c0 112.64-92.16 204.8-204.8 204.8zM768 89.6h-512v76.8c0 84.48 69.12 153.6 153.6 153.6h204.8c84.48 0 153.6-69.12 153.6-153.6v-76.8zM320 576c5.12 0 10.24 0 15.36 2.56 12.8-87.040 84.48-156.16 176.64-156.16 84.48 0 153.6 56.32 174.080 133.12 10.24 5.12 17.92 12.8 23.040 20.48 17.92 2.56 33.28 17.92 33.28 38.4v25.6c0 17.92-12.8 30.72-28.16 35.84-12.8 99.84-97.28 181.76-202.24 181.76-107.52 0-192-79.36-202.24-181.76-15.36-5.12-28.16-20.48-28.16-35.84v-25.6c0-20.48 17.92-38.4 38.4-38.4zM637.44 576h-51.2c-5.12 15.36-20.48 25.6-35.84 25.6h-25.6c-20.48 0-38.4-17.92-38.4-38.4s17.92-38.4 38.4-38.4h25.6c17.92 0 30.72 10.24 35.84 25.6h43.52c-20.48-46.080-64-76.8-117.76-76.8-71.68 0-128 58.88-128 128s56.32 128 128 128 128-58.88 128-128c0-10.24 0-17.92-2.56-25.6zM512 806.4c64 0 120.32-40.96 143.36-97.28-33.28 43.52-84.48 71.68-143.36 71.68s-110.080-28.16-143.36-69.12c23.040 53.76 79.36 94.72 143.36 94.72z" />
<glyph unicode="&#xe96c;" glyph-name="tag" d="M950.835 389.837l-296.602 296.090c-9.011 9.011-21.043 14.336-33.766 14.925l-197.811 9.421c-14.157 30.746-35.277 61.491-63.002 89.19-84.966 84.966-198.451 109.286-253.414 54.298-54.989-54.989-30.669-168.448 54.298-253.44 33.536-33.536 71.475-57.446 108.544-70.938l8.192-171.776c0.614-12.723 5.939-24.755 14.925-33.766l296.602-296.038c19.994-19.994 52.403-19.994 72.397 0l289.638 289.638c19.994 19.994 19.994 52.403 0 72.397zM262.758 661.76l3.584-75.469c-23.322 11.366-47.36 28.006-69.632 50.253-67.328 67.354-84.224 151.117-54.298 181.018 29.901 29.901 113.69 13.030 181.018-54.298 16.102-16.102 29.133-33.126 39.501-50.15l-46.618 2.227c-30.131 1.434-54.989-23.424-53.555-53.581zM624.998 64l-296.602 296.090-14.49 304.102 72.448-3.456c3.917-13.901 5.325-26.701 5.043-38.4-8.294-2.278-16.179-6.426-22.707-12.954-19.994-19.994-19.994-52.403 0-72.397s52.403-19.994 72.397 0c19.558 19.558 19.866 50.944 1.126 71.014 1.869 15.744 1.050 32.64-2.406 50.176l178.176-8.474 296.602-296.090-289.587-289.613zM441.882 392.934l201.984-201.472 35.456 35.456-202.010 201.472-35.43-35.456zM541.21 492.262l201.984-201.472 35.456 35.456-202.010 201.472-35.43-35.456z" />
<glyph unicode="&#xe96d;" glyph-name="thumb-up" d="M849.92 435.2c10.24 12.8 20.48 28.16 20.48 46.080 0 53.76-35.84 84.48-97.28 84.48h-148.48c12.8 56.32 30.72 138.24 30.72 156.16v5.12c0 12.8 0 28.16-12.8 40.96-15.36 12.8-35.84 12.8-51.2 12.8-43.52 0-76.8-58.88-110.080-122.88-10.24-20.48-20.48-38.4-30.72-51.2-15.36-23.040-25.6-35.84-35.84-48.64-15.36-17.92-28.16-33.28-28.16-56.32v-384l23.040-2.56c2.56 0 28.16-2.56 97.28-2.56 35.84 0 79.36 0 138.24 2.56 81.92 2.56 130.56 20.48 148.48 56.32 7.68 15.36 10.24 30.72 7.68 43.52 20.48 12.8 46.080 33.28 48.64 61.44 2.56 17.92-2.56 33.28-10.24 43.52 15.36 15.36 30.72 38.4 30.72 66.56 0 20.48-10.24 35.84-20.48 48.64zM798.72 407.040c0 0 20.48-7.68 20.48-20.48s-20.48-35.84-35.84-46.080l-40.96-33.28 51.2-12.8c2.56 0 7.68-2.56 7.68-12.8 0-7.68-20.48-23.040-38.4-30.72l-28.16-10.24 15.36-25.6c0 0 5.12-10.24 0-17.92-2.56-5.12-20.48-25.6-104.96-28.16-112.64-2.56-176.64-2.56-207.36 0v337.92c0 5.12 5.12 10.24 15.36 23.040s25.6 28.16 40.96 53.76c10.24 15.36 20.48 35.84 30.72 53.76 15.36 30.72 51.2 92.16 66.56 94.72 5.12 0 7.68 0 10.24 0 0-2.56 0-2.56 0-5.12v-5.12c0-12.8-17.92-99.84-35.84-174.080l-7.68-30.72h212.48c46.080 0 46.080-23.040 46.080-33.28 0-5.12-12.8-17.92-28.16-28.16l-46.080-28.16 56.32-20.48zM179.2 115.2h153.6v409.6h-153.6v-409.6zM230.4 473.6h51.2v-307.2h-51.2v307.2z" />
<glyph unicode="&#xe96e;" glyph-name="tiles" d="M588.8 371.2v-128h128v128h-128zM537.6 422.4h230.4v-230.4h-230.4v230.4zM588.8 652.8v-128h128v128h-128zM537.6 704h230.4v-230.4h-230.4v230.4zM307.2 371.2v-128h128v128h-128zM256 422.4h230.4v-230.4h-230.4v230.4zM307.2 652.8v-128h128v128h-128zM256 704h230.4v-230.4h-230.4v230.4z" />
<glyph unicode="&#xe96f;" glyph-name="tow-bar" d="M872.986 832.051c-175.258 0-345.318-27.52-505.856-50.944l17.178-23.091c0 0-145.024-135.859-145.024-179.533v-124.314l-34.483-55.219v-103.552c2.099-34.97 5.99-35.354 30.976-52.198h-82.176c-14.131 0-25.6 11.469-25.6 25.6v25.6h25.6v51.866c1.306 27.008-19.507 49.946-46.515 51.251-1.459 0.077-2.893 0.077-4.352 0.026-27.315 1.152-50.381-20.070-51.533-47.386-0.051-1.306-0.051-2.586 0-3.891v-51.866h25.6v-25.6c0-42.419 34.381-76.8 76.8-76.8h224.666c21.171-89.37 110.771-144.666 200.141-123.494 62.362 14.771 110.669 64.051 124.211 126.694v0 0h270.182v51.2h-267.187c-8.806 91.443-90.086 158.464-181.53 149.658-79.283-7.629-142.029-70.374-149.658-149.658-24.448 0.051-48.87 1.792-73.088 5.197l-45.133 40.115c-0.128 1.152-0.205 92.57-0.205 92.57l34.509 55.245v134.81c29.875 57.702 149.555 165.786 149.555 165.786 141.67 24.422 284.979 38.067 428.698 40.806 33.971 0 68.634-0.998 104.038-3.277v51.251c-33.434 2.176-66.714 3.149-99.814 3.149zM540.032 115.2c-63.616 0-115.2 51.584-115.2 115.2s51.584 115.2 115.2 115.2 115.2-51.584 115.2-115.2c-0.077-63.59-51.61-115.123-115.2-115.2z" />
<glyph unicode="&#xe970;" glyph-name="transmission-automatic" d="M822.17 462.336c-18.842 21.069-45.875 33.126-74.138 33.126h-79.642v358.451h-51.2v-358.451h-73.651c-28.262 0-55.296-12.083-74.138-33.126-11.187-12.493-18.432-27.597-22.221-43.622h-9.19c-14.131 0-25.6-11.469-25.6-25.6v-153.6c0-14.131 11.469-25.6 25.6-25.6h25.6l1.536-13.85c5.606-50.483 48.128-88.55 98.944-88.55h53.094v-76.8h51.2v76.8h59.11c50.816 0 93.338 38.067 98.944 88.55l20.557 184.883c3.098 28.109-5.914 56.32-24.806 77.389zM796.083 390.579l-20.557-184.858c-2.688-24.525-23.373-43.008-48.051-43.008h-163.405c-24.678 0-45.338 18.483-48.051 43.008l-20.557 184.858c-1.562 13.875 2.714 27.213 12.032 37.606 9.293 10.368 22.093 16.077 36.019 16.077h204.493c13.926 0 26.726-5.709 36.019-16.077 9.318-10.394 13.594-23.757 12.058-37.606zM156.39 700.314h76.8v76.8h-76.8v-76.8zM156.39 111.514h76.8v76.8h-76.8v-76.8zM156.39 265.114h76.8v76.8h-76.8v-76.8zM156.39 418.714h76.8v76.8h-76.8v-76.8zM628.864 383.693l-63.898-144.179h36.019l9.037 21.299h63.898l9.011-21.299h37.709l-63.104 144.179h-28.672zM622.285 289.485l19.686 46.49 19.661-46.49h-39.347z" />
<glyph unicode="&#xe971;" glyph-name="transmission-manual" d="M870.4 857.6v-384h-204.8v384h-51.2v-384h-204.8v384h-51.2v-384h-128c-42.342 0-76.8 34.458-76.8 76.8v307.2h-51.2v-307.2c0-70.579 57.421-128 128-128h128v-384h51.2v384h204.8v-384h51.2v384h204.8v-384h51.2v819.2h-51.2z" />
<glyph unicode="&#xe972;" glyph-name="upload" d="M256 755.2h512v51.2h-512v-51.2zM750.080 501.76l-33.28-38.4-179.2 158.72v-532.48h-51.2v532.48l-181.76-158.72-33.28 38.4 240.64 209.92 238.080-209.92z" />
<glyph unicode="&#xe973;" glyph-name="user" d="M768 122.88h-512v79.36c0 84.48 69.12 153.6 153.6 153.6h204.8c84.48 0 153.6-69.12 153.6-153.6v-79.36zM614.4 407.040h-204.8c-112.64 0-204.8-92.16-204.8-204.8v-130.56h614.4v130.56c0 112.64-92.16 204.8-204.8 204.8zM512 773.12c79.36 0 140.8-64 140.8-140.8s-64-140.8-140.8-140.8-140.8 64-140.8 140.8 61.44 140.8 140.8 140.8zM512 437.76c107.52 0 192 87.040 192 192s-84.48 194.56-192 194.56-192-87.040-192-192 84.48-194.56 192-194.56z" />
<glyph unicode="&#xe974;" glyph-name="volume-max" d="M665.6 276.48v281.6h51.2v-281.6h-51.2zM768 199.68v435.2h51.2v-435.2h-51.2zM870.4 122.88v588.8h51.2v-588.8h-51.2zM179.2 327.68v204.8h102.4v-204.8h-102.4zM332.8 327.68v204.8l230.4 153.6v-486.4l-230.4 128zM614.4 780.8l-296.96-197.12h-189.44v-307.2h192l294.4-163.84v668.16z" />
</font>
</defs>
</svg>
