<?xml version="1.0" standalone="no"?>
<!DOCTYPE svg PUBLIC "-//W3C//DTD SVG 1.1//EN" "http://www.w3.org/Graphics/SVG/1.1/DTD/svg11.dtd" >
<svg xmlns="http://www.w3.org/2000/svg">
<metadata>Generated by IcoMoon</metadata>
<defs>
<font id="bronson-seat" horiz-adv-x="1024">
<font-face units-per-em="1024" ascent="960" descent="-64" />
<missing-glyph horiz-adv-x="1024" />
<glyph unicode="&#x20;" horiz-adv-x="512" d="" />
<glyph unicode="&#xe900;" glyph-name="abs" d="M520.405 438.827h-14.165v-28.459h13.867c21.163 0 20.992 28.459 0.299 28.459zM506.24 486.059v-22.955h12.373c15.787 0 16.768 22.955-0.299 22.955h-12.075zM688.384 882.816v-48.597c151.211-68.992 248.277-219.947 248.277-386.176s-97.024-317.141-248.277-386.176v-48.725c177.067 71.808 292.949 243.797 292.949 434.859s-115.883 363.051-292.949 434.816zM330.667 64.128c-148.523 70.144-243.285 219.648-243.285 383.872 0 164.267 94.763 313.728 243.285 383.872v49.024c-174.464-73.088-288-243.755-288-432.896s113.536-359.808 288-432.896v49.024zM602.24 420.821l42.027 2.816c-0.085-2.389 1.152-16.384 17.451-16.384 19.2 0 17.579 15.403 10.624 17.92-9.216 3.371-23.125 7.979-23.125 7.979-29.824 9.515-44.715 20.565-44.715 44.715 0 29.824 25.045 41.003 52.309 41.003 40.832 0 56.491-23.552 59.605-40.832l-42.027-2.987c-1.621 9.557-6.4 14.891-14.891 14.891s-11.776-3.413-11.776-8.96c0-5.504 2.432-8.064 14.891-11.947 40.704-12.629 57.984-17.195 57.984-47.403 0-28.459-22.955-43.221-56.491-43.221-38.613-0.853-57.984 17.365-61.867 42.411zM574.805 421.077c0-25.771-19.371-41.131-49.323-41.131h-58.411v135.936h57.515c31.744 0 44.715-14.891 44.715-34.261 0.469-11.776-5.845-22.784-16.256-28.331 13.739-4.523 22.699-17.749 21.76-32.213zM385.237 425.429l-12.971 50.517-12.971-50.517h25.941zM392.363 397.099h-39.637l-4.48-17.152h-42.923l43.819 135.936h46.379l44.715-135.936h-42.795l-5.077 17.152zM512.085 757.632c-125.269 0-238.208-75.477-286.165-191.232-47.915-115.755-21.419-248.96 67.2-337.536s221.824-115.029 337.579-67.029c115.712 48 191.147 160.939 191.061 286.251-0.213 170.923-138.795 309.376-309.675 309.547zM512.085 93.653c-195.755 0-354.432 158.677-354.432 354.432s158.677 354.432 354.432 354.432 354.432-158.677 354.432-354.432c-0.213-195.669-158.763-354.261-354.432-354.432z" />
<glyph unicode="&#xe901;" glyph-name="adaptive-chassis" d="M696.704 270.165h41.344v-124.075h-41.344v124.075zM324.437 146.091h-41.387v124.075h41.344v-124.075zM655.317 228.821h-289.536v82.731h-124.075v-206.848h124.075v82.731h289.536v-82.731h124.075v206.848h-124.075v-82.731zM738.048 621.909h-41.344v124.117h41.344v-124.117zM324.437 621.909h-41.387v124.117h41.344v-124.117zM655.317 787.371v-82.731h-289.536v82.731h-124.075v-206.805h124.075v82.731h126.037v-349.397h41.387v349.397h122.027v-82.731h124.075v206.805h-123.989z" />
<glyph unicode="&#xe902;" glyph-name="air-filter" d="M387.541 375.68v41.472h282.069v-41.472h-282.069zM122.069 267.819v41.472h497.749v-41.472h-497.749zM122.069 483.499v41.472h497.749v-41.472h-497.749zM141.824 960h760.064v-41.472h-24.149v-941.056h24.149v-41.472h-760.064v41.472h36.821v201.728h41.515v-201.728h90.027v201.728h41.472v-201.728h90.027v201.728h41.472v-201.728h90.069v201.728h41.472v-201.728h90.069v291.243h41.472v-291.243h90.027v941.056h-90.027v-387.584h-41.472v387.584h-90.069v-300.587h-41.472v300.587h-90.069v-300.587h-41.472v300.587h-90.027v-300.587h-41.472v300.587h-90.069v-300.587h-41.472v300.587h-36.821v41.472z" />
<glyph unicode="&#xe903;" glyph-name="airbag" d="M801.792 666.709l132.651 114.048 30.933-36.011-132.651-114.048-30.933 36.011zM624.555 809.515c4.096 39.68 39.552 68.565 79.232 64.469 39.68-4.053 68.565-39.552 64.512-79.232s-39.509-68.565-79.232-64.512c-39.595 4.224-68.437 39.595-64.512 79.275zM684.843 689.237c45.739-4.693 89.813 18.688 111.573 59.179 21.803 40.491 16.981 90.155-12.16 125.739s-76.843 50.091-120.875 36.693c-43.989-13.355-75.605-51.968-80-97.749-6.059-62.165 39.296-117.547 101.461-123.861zM569.515 244.395h-4.395l-181.845 18.859-78.592-241.707-62.635 6.315c-9.131 0.939-17.365 6.016-22.315 13.739-5.205 8.235-6.144 18.475-2.475 27.52l86.571 286.848 171.904-18.048v1.707l93.781-95.232zM450.987 388.096l-5.632-5.376-170.539 17.493-96.341-318.379c-7.509-20.608-5.077-43.477 6.571-62.037s31.232-30.72 53.035-32.896l96.341-9.771 78.037 241.152 148.779-15.019c14.293-1.536 28.715 1.323 41.301 8.277l87.381-89.472 29.611 28.757-88.107 90.155c6.869 12.928 9.728 27.563 8.277 42.112 0 14.72 25.728 98.688 50.219 168.064l1.493 18.56-41.301 4.395-1.237-11.563c-16.256-47.915-53.803-157.995-51.328-183.339 0.213-1.493 0.213-3.029 0-4.565l-104.747 107.221 75.563 194.773 233.984-23.936 4.267 41.301-265.387 27.136-90.24-233.045zM89.003 685.397c0 73.515 44.288 139.776 112.171 167.893 67.925 28.117 146.048 12.544 198.016-39.467 51.968-51.968 67.456-130.176 39.296-198.059s-94.464-112.128-167.936-112.085c-100.267 0.171-181.461 81.451-181.547 181.717zM493.525 685.397c0 123.136-99.84 222.976-222.976 222.976s-222.976-99.84-222.976-222.976c0-123.136 99.84-222.976 222.976-222.976 123.093 0.043 222.891 99.84 222.976 222.976z" />
<glyph unicode="&#xe904;" glyph-name="ambient-led" d="M512 702.976c-124.075 0-213.077-90.837-213.077-202.539v-308.821h128.128v-212.949h42.624v212.949h86.101v-212.949h42.624v212.949h126.123v42.624h-382.976v266.24c0 88.192 64.512 159.915 170.453 159.915s170.453-71.723 170.453-159.915v-180.949h42.624v180.949c-0.043 111.659-89.045 202.496-213.077 202.496zM235.093 511.189c-11.776 0-21.291-9.557-21.291-21.291 0-11.776 9.557-21.291 21.291-21.291 11.776 0 21.291 9.557 21.291 21.291 0 11.776-9.557 21.291-21.291 21.291zM149.845 511.189c-11.776 0-21.291-9.557-21.291-21.291 0-11.776 9.557-21.291 21.291-21.291s21.291 9.557 21.291 21.291c0.043 11.776-9.515 21.291-21.291 21.291zM173.781 622.123c-11.221 3.669-23.211-2.475-26.88-13.653-3.627-11.221 2.517-23.211 13.696-26.88 11.179-3.627 23.211 2.517 26.837 13.696 3.669 11.179-2.475 23.211-13.653 26.837zM235.477 690.475c6.912 9.515 4.821 22.869-4.693 29.781s-22.869 4.779-29.781-4.736-4.821-22.827 4.693-29.781c9.557-6.869 22.869-4.779 29.781 4.736zM310.613 766.165c9.515 6.912 11.605 20.267 4.693 29.781s-20.224 11.648-29.781 4.693-11.605-20.224-4.693-29.739c6.912-9.515 20.224-11.648 29.781-4.736zM405.419 814.976c11.179 3.627 17.323 15.659 13.696 26.837-3.669 11.179-15.659 17.323-26.88 13.696-11.179-3.669-17.323-15.659-13.653-26.88 3.627-11.179 15.659-17.323 26.837-13.653zM510.677 832.043c11.776 0 21.291 9.557 21.291 21.291 0 11.776-9.515 21.333-21.291 21.333s-21.291-9.557-21.291-21.291c-0.043-11.776 9.515-21.333 21.291-21.333zM616.064 815.787c11.179-3.627 23.211 2.475 26.837 13.696s-2.475 23.168-13.653 26.837c-11.179 3.627-23.211-2.475-26.837-13.696-3.669-11.179 2.475-23.211 13.653-26.837zM741.035 772.437c6.912 9.515 4.821 22.827-4.736 29.781-9.515 6.912-22.827 4.821-29.781-4.693-6.912-9.515-4.821-22.827 4.693-29.781 9.557-6.912 22.912-4.821 29.824 4.693zM791.68 722.389c-9.515-6.912-11.648-20.224-4.693-29.781 6.912-9.515 20.224-11.648 29.781-4.693s11.648 20.224 4.736 29.781c-6.997 9.515-20.309 11.605-29.824 4.693zM862.592 584.107c11.179 3.627 17.323 15.659 13.696 26.837s-15.659 17.323-26.837 13.696-17.323-15.659-13.696-26.837 15.659-17.323 26.837-13.696zM874.155 513.877c-11.776 0-21.291-9.557-21.291-21.291s9.557-21.291 21.291-21.291 21.291 9.557 21.291 21.291-9.557 21.291-21.291 21.291zM254.891 595.797c-11.179 3.627-23.211-2.517-26.837-13.696-3.669-11.179 2.475-23.211 13.653-26.837s23.211 2.475 26.837 13.696c3.669 11.179-2.475 23.211-13.653 26.837zM299.861 670.123c-9.515 6.912-22.827 4.821-29.781-4.693-6.869-9.557-4.779-22.869 4.736-29.781s22.827-4.821 29.781 4.693c6.912 9.515 4.779 22.869-4.736 29.781zM360.917 697.131c9.515 6.912 11.648 20.224 4.693 29.781s-20.224 11.605-29.739 4.693-11.648-20.224-4.693-29.781 20.224-11.605 29.739-4.693zM405.163 747.392c3.627-11.179 15.659-17.323 26.837-13.696s17.323 15.659 13.696 26.837-15.659 17.323-26.837 13.696c-11.221-3.627-17.323-15.616-13.696-26.837zM510.933 789.163c-11.776 0-21.291-9.557-21.291-21.291s9.557-21.291 21.291-21.291 21.291 9.557 21.291 21.291-9.515 21.291-21.291 21.291zM589.995 734.379c11.179-3.627 23.211 2.475 26.837 13.696 3.627 11.179-2.475 23.211-13.696 26.837-11.179 3.627-23.211-2.475-26.837-13.696-3.627-11.179 2.517-23.211 13.696-26.837zM691.157 703.061c6.912 9.515 4.821 22.869-4.693 29.781s-22.827 4.821-29.781-4.693c-6.912-9.515-4.821-22.869 4.693-29.781s22.869-4.821 29.781 4.693zM752.683 667.093c-6.912 9.515-20.224 11.648-29.781 4.693-9.515-6.912-11.648-20.224-4.693-29.781s20.224-11.648 29.781-4.736c9.472 6.955 11.605 20.309 4.693 29.824zM781.653 557.227c11.179 3.627 17.323 15.659 13.696 26.837s-15.659 17.323-26.837 13.696-17.323-15.659-13.696-26.837c3.584-11.179 15.616-17.323 26.837-13.696zM788.907 513.28c-11.776 0-21.291-9.557-21.291-21.291 0-11.776 9.557-21.291 21.291-21.291 11.776 0 21.291 9.557 21.291 21.291 0.043 11.776-9.515 21.291-21.291 21.291z" />
<glyph unicode="&#xe905;" glyph-name="anti-thieft-alert" d="M511.787 21.333l-258.219 171.904c-58.24 40.619-92.8 105.643-92.928 174.976v423.765l351.147 82.688 351.616-82.688-0.896-43.52-350.677 81.963-306.048-72.533v-390.272c0.043-55.211 27.52-107.051 73.856-139.435l232.192-154.069 232.661 154.923c45.909 32.512 73.045 84.181 72.917 139.136v244.48h-128.341l-173.696-394.752-167.083 232.107 37.163 24.789 120.32-167.253 153.387 348.16h203.307v-287.531c-0.299-68.907-34.645-133.589-92.501-174.080l-258.176-172.757z" />
<glyph unicode="&#xe906;" glyph-name="app" d="M789.675 43.008h-683.008v42.411h682.752c47.189 0.085 85.461 38.315 85.504 85.504v640.64h-640.043c-22.784 0.043-44.629-9.003-60.715-25.088s-25.131-37.931-25.088-60.715v-547.584h-42.411v547.584c0.469 70.357 57.6 127.147 127.915 127.232h682.752v-682.752c-0.469-70.229-57.387-126.976-127.659-127.232zM281.941 425.941l335.445-56.533c-7.168-9.515-18.645-14.848-30.549-14.123h-80c-74.197 0-165.376 2.987-224.768 6.912 0.725-14.123 2.987-59.648 3.968-74.752 1.536-22.784 2.261-27.008 7.893-30.976 6.357-3.627 13.611-5.419 20.907-5.248 109.824-8.491 220.075-9.899 330.069-4.224 43.264 2.389 61.483 5.632 76.885 19.371 11.307 10.027 17.109 26.709 17.963 53.973 0.853 22.613 1.835 62.336 2.133 74.923l-459.947 86.229v-55.552zM426.709 549.504c6.912 0.853 65.579 1.963 130.901 1.28 65.28-0.683 139.947-4.523 183.765-6.784-0.853 19.072-2.56 53.717-3.541 66.731-1.408 22.613-2.133 27.008-7.765 30.805-6.4 3.669-13.696 5.504-21.077 5.248-109.824 8.491-220.075 9.984-330.069 4.395-43.264-2.475-61.355-5.717-76.885-19.584-11.307-10.027-16.981-26.539-17.963-53.845 0-21.333-1.707-57.387-1.963-72.235l460.672-79.573v49.493l-339.285 62.592c5.717 6.997 14.165 11.136 23.211 11.477z" />
<glyph unicode="&#xe907;" glyph-name="area-alert" d="M496.939 740.949h91.349v43.093h-91.349c-16.384 0.043-32-6.741-43.136-18.773-11.136-11.989-16.725-28.117-15.445-44.459l20.693-264.576h104.875l17.536 192.469-43.093 3.883-14.379-153.259h-25.429l-17.28 224.811c-0.427 4.352 1.024 8.704 4.011 11.904 3.029 3.2 7.253 4.949 11.648 4.907zM512 917.333c-173.653-0.213-314.411-140.928-314.709-314.581-0.085-40.491 7.723-80.597 22.997-118.059 43.093-107.861 264.149-462.208 272.896-477.312l18.261-28.715 18.389 28.715c3.157 5.163 31.616 50.987 69.376 113.195h-50.005c-14.379-24.277-27.563-45.099-37.205-60.629-54.869 88.917-216.747 354.645-251.819 440.832-45.781 113.451-10.069 243.499 87.168 317.653 97.28 74.197 232.149 74.197 329.387 0 97.28-74.155 132.949-204.245 87.168-317.653-22.571-55.723-97.237-184.875-162.475-293.76h50.133c62.464 105.131 130.133 223.232 152.277 277.931 15.189 37.419 22.912 77.397 22.827 117.76-0.256 173.696-141.013 314.411-314.667 314.624zM511.445 321.792c-12.203 0.085-22.016 10.027-21.973 22.229s9.984 22.059 22.187 22.016c12.203-0.043 22.059-9.941 22.059-22.101 0-5.888-2.347-11.52-6.528-15.701-4.224-4.139-9.856-6.443-15.744-6.443zM511.445 409.003c-36.011-0.085-65.152-29.355-65.067-65.365s29.355-65.152 65.365-65.067c36.011 0.085 65.152 29.355 65.067 65.365-0.043 17.28-6.955 33.877-19.2 46.080-12.288 12.203-28.885 19.029-46.165 18.987z" />
<glyph unicode="&#xe908;" glyph-name="arrow-left-right" d="M577.365 234.368h-321.493v-78.72l-146.176 121.685 146.176 121.685v-78.464l194.517-0.555 42.667 43.52h-194.261v127.147l-256.128-213.333 256.128-213.333v127.445h321.493l0.768 171.221-43.648 0.725v-129.024zM981.461 618.667l-256.128 213.333v-170.368h42.965v78.72l146.005-121.685-146.048-121.728v78.635h-321.664v85.76h170.368l42.667 42.667h-256v-171.392h321.707v-127.275l256.128 213.333z" />
<glyph unicode="&#xe909;" glyph-name="arrow-right-square" d="M690.219 174.891l292.821 273.067-299.136 265.301-27.52-31.019 245.163-217.429h-552.32v-41.429h546.688l-233.984-218.197 28.288-30.293zM895.531 41.429h-678.741c-74.112 0-134.4 60.288-134.4 134.357v678.784h678.741c74.112 0 134.4-60.288 134.4-134.4v-90.24l41.429-37.163v127.403c0 96.981-78.891 175.829-175.829 175.829h-720.171v-720.213c0-96.939 78.891-175.787 175.829-175.787h720.213v302.251l-41.429-37.163v-223.659z" />
<glyph unicode="&#xe90a;" glyph-name="authorized-partner" d="M956.544 137.899v543.701c0 38.101-21.035 72.747-54.869 90.283l-242.901 126.123-282.795-143.915-308.523 163.243v-710.827c0-37.419 20.437-71.68 53.291-89.472l255.488-138.368 278.485 155.435 270.677-149.205 20.821 37.803-267.563 147.456v668.843l203.093-105.429c19.499-10.112 31.573-30.037 31.573-52.011v-543.701h43.221zM396.032 715.861l239.531 121.899v-664.96l-239.531-133.675v676.736zM110.592 206.507v639.147l242.261-128.171v-677.077l-211.584 114.56c-18.901 10.283-30.677 29.995-30.677 51.541z" />
<glyph unicode="&#xe90b;" glyph-name="ball" d="M854.912 274.56l-321.664 186.283v178.091l362.539-209.28c-2.56-53.973-16.512-106.837-40.875-155.093zM312.021 120.448c-48.683 29.867-90.197 70.101-121.557 117.888l321.664 185.856 163.029-94.037-363.136-209.707zM128 448.128c0 126.293 62.208 244.48 166.229 316.032v-416.981l-125.099-72.619c-27.221 53.803-41.344 113.28-41.131 173.568zM336.555 371.584v417.963c47.915 24.875 100.523 39.296 154.411 42.283v-370.859l-154.411-89.387zM894.933 478.891l-361.685 208.853v143.957c191.701-10.88 346.027-161.451 361.685-352.811zM512.085 874.581c-194.645 0.085-364.629-131.627-413.227-320.128-48.555-188.501 36.608-385.963 207.061-479.957s382.891-60.715 516.437 80.896l-37.931 21.589c-112.213-112.939-282.581-144.725-427.989-79.829l361.003 208.427 153.685-88.704 10.581 18.347c76.075 131.968 75.947 294.485-0.299 426.368-76.203 131.84-217.003 213.035-369.323 212.992z" />
<glyph unicode="&#xe90c;" glyph-name="bell" d="M941.653 213.248l-26.027 31.829c-3.328-2.688-16.256-11.733-36.224-20.992-65.152-30.293-220.715-61.653-368.299-61.653-183.595 0-343.552 44.331-381.696 68.309 84.267 88.576 101.973 150.4 101.973 214.997 0 267.563 175.061 301.611 182.443 302.891l17.152 2.859v96.555c0 15.488 12.629 28.117 28.117 28.117h103.979c15.488 0 28.117-12.629 28.117-28.117l0.085-96.384 16.981-2.987c7.467-1.28 182.571-35.328 182.571-302.891 0-40.277 6.101-90.069 51.285-154.197l33.664 23.68c-38.485 54.613-43.776 94.976-43.776 130.517 0 252.416-148.352 322.261-199.637 338.901v63.36c0.043 38.229-31.019 69.291-69.205 69.291h-103.979c-38.229 0-69.291-31.061-69.291-69.291v-63.189c-20.608-6.4-56.875-21.291-92.928-53.504-48.683-43.477-106.667-128.299-106.667-285.568 0-57.344-17.323-112.981-101.76-198.101l-3.968-3.968-1.365-5.461c-1.323-5.205-2.219-15.531 6.4-26.624 22.485-28.885 114.603-57.387 224.171-74.411 26.325-92.757 112.085-158.549 209.835-158.549 99.413 0 186.069 67.797 210.987 162.859 69.504 12.459 127.531 29.099 162.219 45.227 21.376 9.984 37.547 20.523 44.843 26.496zM523.605 19.797c-73.045 0-137.856 45.227-164.395 111.147 50.133-6.059 102.229-9.685 151.936-9.685 61.184 0 122.197 5.035 178.091 12.971-25.643-67.669-91.264-114.432-165.632-114.432z" />
<glyph unicode="&#xe90d;" glyph-name="belt" d="M533.845 831.147c47.147 0 85.376-38.229 85.376-85.376s-38.229-85.376-85.376-85.376c-47.147 0-85.376 38.229-85.376 85.376 0.043 47.147 38.229 85.376 85.376 85.376zM533.845 618.581c70.699 0 128.043 57.344 128.043 128.043s-57.301 128.043-128.043 128.043c-70.699 0-128.043-57.344-128.043-128.043s57.344-128.043 128.043-128.043zM369.408 416.128c-3.2 10.453-1.109 21.803 5.547 30.464 8.875 10.411 22.059 16.171 35.712 15.659h275.157l-268.331-261.632c-15.232 72.661-33.28 156.331-48.085 215.509zM602.581 64h-157.355c-3.712 18.219-9.813 49.493-17.493 86.912l435.755 425.088h-61.184l-72.832-71.125h-318.805c-26.965 0.683-52.779-11.136-69.845-32-14.72-19.072-19.584-43.947-13.227-67.157 16.512-65.877 37.12-162.773 53.205-240.427l-147.115-143.957h61.056l96.597 94.635c9.259-45.099 15.232-75.989 15.36-76.843l3.968-17.792h225.195l77.824 308.011 9.941 36.011-60.885-62.165-60.16-239.189z" />
<glyph unicode="&#xe90e;" glyph-name="benefit-finance" d="M922.368 241.621c-29.227 22.059-60.928 28.928-62.293 29.227l-3.029 0.427c-37.419 2.56-91.392-26.496-153.856-64.384-7.211 16.853-18.048 27.776-27.392 34.432-17.067 12.117-41.387 15.317-58.197 14.336l-320.555-17.195v-216.789h-173.696v127.701c0 26.112 21.205 47.317 47.317 47.317h57.344v42.923h-57.344c-49.749 0-90.24-40.491-90.24-90.24v-170.709h259.499v20.736l235.008-15.189c4.48-0.299 8.917-0.427 13.355-0.427 48.811 0 95.531 17.323 132.736 49.536l222.507 192.299-21.163 16zM692.992 65.792c-32.043-27.691-72.96-41.472-115.285-38.741l-237.781 15.36v155.307l280.107 15.019c11.605 0.683 24.789-2.091 30.933-6.443 7.424-5.291 12.331-12.629 14.976-22.315-5.675-3.456-11.093-6.741-16.043-9.685-39.253-23.168-141.611-27.648-177.792-27.819l-0.128-42.923c14.251 0.128 143.275 0.469 199.765 33.792 9.301 5.504 19.925 12.032 31.36 19.072 43.947 27.093 116.864 72.064 149.163 72.064h0.469c3.115-0.811 10.795-3.029 20.181-7.253l-179.925-155.435zM650.624 679.765h-174.251c19.84 52.949 65.621 86.016 126.805 86.016 31.403 0 60.117-7.168 79.403-18.176v69.461c-22.571 9.387-50.731 14.933-80.469 14.933-102.016 0-179.243-63.445-204.629-152.235h-56.192v-40.789h309.333v40.789zM602.112 400.768c29.781 0 57.899 5.504 80.512 14.891v70.016c-19.285-11.008-48-18.773-79.403-18.773-60.672 0-106.453 32.512-126.805 84.949h174.251v40.832h-309.376v-40.832h56.789c25.387-88.235 102.016-151.083 204.032-151.083z" />
<glyph unicode="&#xe90f;" glyph-name="bicycle-rack" d="M153.472 494.891h36.565c0.171 19.925-7.637 39.083-21.675 53.248-13.995 14.165-33.109 22.101-53.035 22.101h-0.725c-19.925 0-38.997-7.979-52.992-22.144s-21.803-33.28-21.632-53.205v-302.165h36.565v302.165c-0.811 14.251 6.357 27.776 18.603 35.157s27.563 7.381 39.765 0c12.203-7.339 19.371-20.864 18.56-35.157zM814.251 226.645c-64.512 0.171-119.040 47.787-127.915 111.701h156.544l-67.925 140.331c12.715 4.011 25.941 6.059 39.253 6.101 46.165 0 88.832-24.619 111.957-64.64 23.083-39.979 23.083-89.259 0-129.237s-65.749-64.64-111.957-64.64v0.384zM743.253 463.445l43.648-90.496h-100.608c5.163 36.949 25.899 69.888 56.96 90.496zM709.973 532.352l17.92-36.565c-43.264-26.837-71.723-72.149-77.056-122.795h-26.709l85.845 159.36zM399.787 552.704h281.301l-93.269-172.885-188.032 172.885zM428.544 355.541c0-71.381-57.856-129.237-129.237-129.237s-129.237 57.856-129.237 129.237 57.856 129.237 129.237 129.237c3.883 0 7.936 0 12.203 0l-34.389-134.101 35.499-9.131 34.517 134.144c49.109-19.669 81.365-67.243 81.408-120.149zM814.251 520.021c-18.603-0.085-37.077-3.328-54.613-9.643l-30.507 63.147v56.832h23.296v36.608h-86.955v-36.565h27.051v-41.088h-317.013l15.616 58.368h70.229v36.565h-98.859l-42.539-165.717c-86.784 11.221-167.168-47.36-183.168-133.376s38.016-169.557 123.008-190.293c84.992-20.736 171.392 28.544 196.821 112.256s-18.987 172.715-101.163 202.752l7.424 28.885 218.368-200.832h69.632c9.515-87.979 86.955-152.619 175.232-146.261 88.235 6.357 155.648 81.451 152.448 169.856-3.243 88.491-75.861 158.507-164.309 158.507z" />
<glyph unicode="&#xe910;" glyph-name="bixenon" d="M788.864 169.301c-15.616 0.213-31.104 2.475-46.123 6.784l-232.832 65.621 12.117 42.709 232.533-65.621c27.477-7.552 48.768-6.955 63.104 1.621s24.405 26.752 30.763 55.296l73.899 380.8-863.701-332.885-15.957 41.387 938.667 361.728-89.429-460.587c-9.472-41.685-26.155-69.035-51.285-84.267-15.787-8.832-33.664-13.184-51.755-12.587z" />
<glyph unicode="&#xe911;" glyph-name="blind-spot" d="M941.397 606.592c39.637-22.997 50.517-59.221 29.312-96.939-37.717-67.328-178.603-221.824-234.624-244.693-27.136-11.093-30.848-21.419-127.659-23.68-35.115-0.811-95.019 0.981-126.677 0.981-16.853-0.256-32.811-7.552-44.075-20.096l-53.675-63.061h-55.040l76.715 89.899c18.901 22.144 46.635 34.773 75.733 34.56 32.085-0.171 91.136-2.219 125.013-0.981 84.523 3.285 92.928 8.533 106.709 17.067 0 0 113.621 67.2 221.952 230.485 9.643 14.549 9.472 27.52-13.781 41.301-171.349 106.155-664.235 142.848-735.147 122.539-22.4-6.4-27.947-12.928-29.611-27.52s7.979-87.424 16.341-152.277c10.88-82.475 22.869-175.829 22.869-218.923-0.128-22.784-8.107-44.8-22.571-62.379l-1.109-1.365-71.595-73.515h-57.813l98.688 101.461c8.149 10.112 12.629 22.699 12.672 35.669 0.128 40.363-11.819 132.309-22.443 213.419-11.989 91.691-18.56 144.299-16.512 162.347 5.12 43.648 39.552 59.136 57.301 61.397 194.987 24.619 633.643-31.872 769.024-125.696zM698.283 568.789l-37.333 37.333-37.333-37.333 37.333-37.333 37.333 37.333zM609.792 480.299h51.2v51.2h-51.2v-51.2zM660.992 407.893l36.224 36.224-36.224 36.224-36.224-36.224 36.224-36.224zM776.064 603.904l36.224-36.224-36.224-36.224-36.224 36.224 36.224 36.224zM827.264 480.299v51.2h-51.2v-51.2h51.2zM776.064 407.893l36.224 36.224-36.224 36.224-36.224-36.224 36.224-36.224z" />
<glyph unicode="&#xe912;" glyph-name="blister" d="M1023.616 546.091c-112.171-4.992-223.744-12.459-335.275-21.76s-222.805-21.248-333.44-36.565c111.403 8.917 222.805 14.037 334.592 16.896 111.787 2.901 222.805 3.669 334.464 2.091l-0.341 39.339zM355.84 408.363c-59.221 6.272-118.4 11.819-177.451 16.512-59.392 4.181-117.973 7.467-178.389 8.917v-39.296c58.453 1.835 117.973 1.835 176.683 0.896 58.709-0.896 117.973-3.285 177.195-6.699 59.264-3.413 117.973-8.277 176.683-14.421 58.709-6.187 117.973-14.677 175.872-24.363-57.813 13.099-116.011 24.789-174.592 34.091-58.581 9.259-116.907 17.792-176 24.363z" />
<glyph unicode="&#xe913;" glyph-name="board-computer" d="M734.336 301.397l-83.029-77.312v243.371l194.56-145.707-111.531-20.352zM395.605 506.581l149.547 128.512h235.989v-217.131l-168.107 125.952v-110.549l-217.429 73.216zM208.939 556.629c0.085 43.264 35.115 78.336 78.336 78.421h199.253l-277.717-238.379 0.128 159.957zM819.285 389.419v283.861h-532.139c-64.299-0.085-116.395-52.267-116.48-116.651v-302.208h367.36v38.187h-329.216v53.76l152.96 131.029 251.392-84.565v-256.341l138.965 129.237 186.539 34.133-119.381 89.557z" />
<glyph unicode="&#xe914;" glyph-name="book" d="M819.797 917.333h-694.571v-208.725h-21.12v-41.131h21.163v-167.595h-21.163v-41.131h21.163v-167.552h-21.163v-41.131h21.163v-145.536c0-69.419 53.163-125.867 118.485-125.867h569.685v812.843c0 32.64-11.861 62.293-31.104 84.651h37.461c42.837 0 77.696-34.901 77.696-77.739v-736.555h41.173v736.555c0 65.536-53.333 118.912-118.869 118.912zM772.309 791.509v-771.712h-418.048v856.064h-41.173v-856.064h-69.333c-42.667 0-77.355 37.973-77.355 84.693v145.536h104.661v41.131h-104.661v167.552h104.661v41.131h-104.661v167.595h104.661v41.173h-104.661v167.595h528.555c42.624 0 77.355-38.016 77.355-84.693z" />
<glyph unicode="&#xe915;" glyph-name="book-square-exclamationmark" d="M597.205-21.888c-36.053 0-65.408 29.355-65.408 65.408v383.659h383.659c36.053 0 65.408-29.355 65.408-65.408v-340.651h42.112v340.651c0 59.264-48.213 107.477-107.52 107.477h-40.32v319.573c0 59.349-48.256 107.605-107.605 107.605h-617.899v-192.213h-21.632v-42.112h21.632v-128.768h-21.632v-42.112h21.632v-150.101h-21.632v-42.112h21.632v-121.173c0-62.72 48.597-113.707 108.331-113.707h231.723v-20.608c0-59.307 48.213-107.52 107.52-107.52h426.795v42.112h-426.795zM767.531 854.315c36.096 0 65.493-29.397 65.493-65.536v-319.531h-64.683v313.472c0 27.136-9.131 52.053-24.277 71.595h23.467zM320.512 106.24h-62.549c-36.523 0-66.219 32.128-66.219 71.637v121.173h85.717v42.112h-85.717v150.101h85.717v42.069h-85.717v128.768h85.717v42.112h-85.76v150.101h128.768v-748.075zM489.685 469.291v-363.051h-127.104v748.075h297.429c36.523 0 66.219-32.128 66.219-71.595v-313.429h-236.544zM734.976 85.205c0-17.707 14.336-32.043 32.043-32.043s32.043 14.336 32.043 32.043c0 17.707-14.336 32.043-32.043 32.043s-32.043-14.379-32.043-32.043zM789.077 358.912h-22.059c-11.648 0-21.035-9.429-21.035-21.035v-169.685h42.112l0.981 190.72z" />
<glyph unicode="&#xe916;" glyph-name="brake" d="M470.955 415.104c-0.299 29.696 17.323 56.619 44.672 68.224 27.307 11.605 58.965 5.632 80.128-15.189s27.733-52.309 16.597-79.829c-11.136-27.52-37.76-45.611-67.456-45.867-40.448-0.341-73.515 32.171-73.941 72.661zM660.48 415.104c0.299 47.147-27.947 89.813-71.467 107.989s-93.696 8.277-127.061-25.088c-33.365-33.365-43.264-83.541-25.088-127.061s60.843-71.723 107.989-71.467c63.701 0.427 115.243 51.925 115.627 115.627zM522.88 694.997c-137.429-10.88-246.571-120.021-257.451-257.451h-93.952c11.264 189.141 162.261 339.925 351.403 350.976v-93.525zM565.803 766.507v65.493h-20.864c-110.592 0.043-216.661-43.861-294.827-122.069-78.251-78.208-122.155-184.277-122.112-294.827v-21.461h179.072v21.461c-0.085 63.104 24.96 123.648 69.589 168.277s105.173 69.675 168.277 69.589h21.461v70.315c154.027-10.965 276.224-134.059 285.995-288.171s-95.872-291.712-247.253-322.048c-151.381-30.336-301.909 55.936-352.256 201.899h-45.355c51.029-170.795 221.824-276.395 397.44-245.675s300.416 188.032 290.432 365.995c-10.027 178.005-151.68 320.341-329.6 331.221z" />
<glyph unicode="&#xe917;" glyph-name="brake-fluid" d="M572.117 801.323l-3.157 0.213v73.131h-20.693c-255.275 0-462.933-207.659-462.933-462.933v-20.651h193.835v20.651c0 148.352 120.704 269.099 269.099 269.099h20.651v78.976l3.584-0.256c182.144-12.587 324.779-165.419 324.779-347.819 0-192.469-156.587-349.013-349.056-349.013-46.976 0-91.904 10.368-133.547 27.776l-17.067-38.4c46.848-19.84 97.92-30.72 150.613-30.72 215.253 0 390.4 175.147 390.4 390.4 0.043 205.952-160.981 377.088-366.507 389.547zM527.616 721.493l-3.115-0.256c-151.381-11.52-274.261-134.357-285.781-285.739l-0.213-3.115h-111.36l0.213 3.541c12.203 213.973 182.741 384.512 396.715 396.715l3.541 0.213v-111.36zM675.029 411.733c0 69.888-56.875 126.763-126.763 126.763s-126.763-56.875-126.763-126.763c0-69.888 56.875-126.763 126.763-126.763 69.931 0 126.763 56.875 126.763 126.763zM462.848 411.733c0 47.104 38.315 85.419 85.419 85.419s85.419-38.315 85.419-85.419c0-47.104-38.315-85.419-85.419-85.419s-85.419 38.315-85.419 85.419zM128 128c0-58.923 47.744-106.667 106.667-106.667s106.667 47.744 106.667 106.667-106.667 192-106.667 192-106.667-133.077-106.667-192zM234.667 64c-35.285 0-64 28.715-64 64 0 19.968 29.269 71.509 64 120.875 34.731-49.365 64-100.907 64-120.875 0-35.285-28.715-64-64-64z" />
<glyph unicode="&#xe918;" glyph-name="brake-pneumatic" d="M721.877 199.851c85.547 71.893 128 182.827 112.299 293.461l-42.112-5.76c11.819-85.547-15.957-171.776-75.435-234.368s-144.213-94.677-230.229-87.211l-3.669-42.112c9.813-0.981 19.797-1.408 29.611-1.408 76.8 0.085 151.125 27.52 209.536 77.397zM328.619 665.131c57.771 49.109 132.907 72.832 208.427 65.835l3.627 42.112c-98.731 8.576-196.011-28.245-264.277-100.096s-100.139-170.837-86.571-269.013l42.112 5.76c-13.739 96.043 22.741 192.469 96.683 255.403zM511.787 654.891c113.963 0 206.293-92.373 206.293-206.293s-92.373-206.293-206.293-206.293c-113.963 0-206.293 92.373-206.293 206.293 0.213 113.835 92.501 206.037 206.293 206.165v0.128zM511.787 200.149c137.216 0 248.405 111.232 248.405 248.405s-111.232 248.405-248.405 248.405-248.405-111.232-248.405-248.405c0.128-137.131 111.275-248.277 248.405-248.405zM914.859 403.243c18.56 166.955-67.797 328.064-217.088 405.035s-330.667 53.888-455.893-58.069c-125.227-111.957-168.448-289.536-108.629-446.549s210.261-260.779 378.24-260.992c160.811 0.341 306.347 95.317 371.371 242.389l-38.443 16.853c-75.776-174.165-272.896-260.565-452.309-198.229s-280.491 252.373-231.893 436.011c48.597 183.595 230.4 298.795 417.195 264.277 186.752-34.517 315.392-207.104 295.125-395.947l42.325-4.779z" />
<glyph unicode="&#xe919;" glyph-name="breakdown-call" d="M702.464 379.563l54.784 4.096c4.096-43.947 38.357-52.437 65.024-52.437 35.883 0 59.605 14.635 59.605 45.824s-21.675 38.955-49.067 46.72l-34.688 10.539c-63.403 19.2-91.392 42.624-91.392 89.941 0 57.685 45.824 83.925 106.027 83.925 75.989 0 110.72-40.576 118.187-89.173l-54.912-5.291c-3.968 29.269-21.973 50.688-61.653 50.688-30.336 0-51.115-10.965-51.115-37.205 0-22.101 14.635-34.688 50.688-45.824l34.731-10.24c46.208-13.824 89.984-33.152 89.984-91.136s-43.947-92.117-115.84-92.117c-76.288 0-114.389 37.632-120.363 91.691zM85.333 379.563l54.784 4.096c4.096-43.947 38.528-52.437 65.024-52.437 36.011 0 59.733 14.635 59.733 45.824s-21.675 38.955-49.067 46.72l-34.859 10.539c-63.403 19.2-91.52 42.624-91.52 89.941 0 57.685 45.824 83.925 105.899 83.925 75.989 0 110.848-40.576 118.187-89.173l-54.784-5.291c-4.096 29.269-22.101 50.645-61.824 50.645-30.165 0-51.115-10.965-51.115-37.205 0-22.101 13.909-34.688 50.688-45.824l34.859-10.24c46.123-13.781 89.899-33.109 89.899-91.093s-43.947-92.117-115.669-92.117c-76.16 0-113.92 37.632-120.235 91.691zM612.395 447.787c0 64.299-42.453 110.421-99.712 110.421s-100.181-46.123-100.181-110.421c0-64.299 42.923-110.421 100.181-110.421 57.216 0 99.712 46.293 99.712 110.421zM356.395 447.787c0 89.643 64.597 159.915 156.245 159.915 91.691 0 156.245-70.272 156.245-159.915 1.493-42.197-14.379-83.2-43.904-113.408s-70.144-47.019-112.341-46.507c-91.648 0-156.245 70.869-156.245 159.915z" />
<glyph unicode="&#xe91a;" glyph-name="briefcase" d="M386.091 230.827v71.083h292.181v-71.083h-292.181zM38.229 304.256v39.467h241.237v-39.467h-241.237zM234.923 758.613v92.16l19.755 19.755h514.645l19.755-19.797-0.213-63.189-39.509 0.085 0.171 43.392h-475.093v-72.405h729.813l19.755-19.712v-572.672c0-77.568-63.147-140.715-140.715-140.715h-863.531l-19.755 19.712v529.451c0 101.419 82.517 183.936 183.936 183.936h50.987zM698.027 341.376h-331.691l-19.755-19.755v-110.549l19.755-19.755h331.691l19.755 19.755v90.837h266.795v39.467h-286.549zM39.467 64.981h843.819c55.808 0 101.205 45.397 101.205 101.248v552.917h-800.555c-79.616 0-144.469-64.811-144.469-144.469v-509.696z" />
<glyph unicode="&#xe91b;" glyph-name="brochure" d="M853.333 72.661h-763.733v140.843h845.099v-67.627c-2.688-42.453-38.827-75.008-81.365-73.216zM112.768 684.075c15.829 14.421 36.523 22.315 57.899 22.101h763.733v-446.165h-845.099v372.907c0.256 19.584 8.789 38.187 23.467 51.157zM170.667 753.109c-29.312 0.171-57.813-9.387-81.067-27.221v24.235c0.085 40.491 32.939 73.259 73.387 73.259h724.907v46.933h-724.864c-66.389-0.085-120.192-53.803-120.363-120.192v-724.437h810.667c68.309-1.579 125.312 51.883 128 120.192v607.232h-810.667z" />
<glyph unicode="&#xe91c;" glyph-name="brochure-2" d="M901.931 831.573c67.328 0 122.069-54.784 122.069-122.069v-645.504h-901.931c-67.328 0-122.069 54.741-122.069 122.069v645.632h42.624v-645.632c0-41.259 31.616-75.221 71.936-79.019-18.176 21.291-29.227 48.853-29.227 79.019v645.632h42.667v-645.632c0-43.776 35.627-79.403 79.403-79.403h773.973v602.837c0 43.776-35.627 79.403-79.403 79.403h-688.384v42.667h688.341zM213.589 476.587v42.624h298.368v-42.624h-298.368zM213.589 348.629v42.624h298.368v-42.624h-298.368zM213.589 220.885v42.624h298.368v-42.624h-298.368zM213.589 625.877v42.624h682.027v-42.624h-682.027zM597.675 220.885v298.112h298.112v-298.112h-298.112zM640.341 263.509h212.864v212.864h-212.864v-212.864z" />
<glyph unicode="&#xe91d;" glyph-name="brochure-download" d="M858.411 81.365h-773.333v133.419h853.888v-60.544c-2.261-42.325-38.229-74.88-80.555-72.875zM85.077 632.491c0.128 19.499 8.491 38.016 22.955 51.029 15.744 14.336 36.309 22.187 57.557 21.973h773.333v-448.085h-853.845v375.083zM981.333 747.648h-815.147c-29.355 0.128-57.813-9.899-80.555-28.373v22.272c0.085 40.277 32.725 72.96 73.003 73.045h680.619v42.496h-681.173c-63.744-0.085-115.413-51.797-115.413-115.541v-702.592h815.744c65.749-2.005 120.704 49.536 122.923 115.285v593.408zM650.795 447.616l-30.336 29.909-77.141-78.123v230.101h-42.539v-231.979l-80.811 77.867-29.483-30.635 132.011-127.061 128.299 129.92z" />
<glyph unicode="&#xe91e;" glyph-name="calculator" d="M297.429 704.171h429.867v-53.12h-429.867v53.12zM641.963 190.251h82.176v-82.176h-82.176v82.176zM472.747 189.568h81.451v-81.493h-81.451v81.493zM300.544 189.397h81.877v-81.877h-81.877v81.877zM641.963 362.027h82.176v-82.176h-82.176v82.176zM472.619 362.027h81.877v-81.877h-81.877v81.877zM300.416 361.899h82.176v-82.176h-82.176v82.176zM642.133 532.821h81.877v-81.877h-81.877v81.877zM472.747 532.693h81.749v-81.749h-81.749v81.749zM299.989 533.376h82.901v-82.901h-82.901v82.901zM855.68 792.491h43.093v-687.403c0-99.157-86.741-126.421-132.693-126.421h-638.891v21.248c-0.128 6.571-1.963 651.307-1.963 772.053 0 113.109 93.995 144.512 143.659 145.365h629.76v-42.795h-629.461c-10.027-0.299-100.907-5.163-100.907-102.315 0-108.459 1.835-636.331 1.835-750.464h595.797c9.003 0.128 89.728 3.712 89.728 83.328v687.403z" />
<glyph unicode="&#xe91f;" glyph-name="calendar" d="M625.963 277.547c-17.28-8.491-29.184-17.28-35.627-26.368s-9.813-19.797-10.112-32.085h157.867v-64.213h-244.48v30.763c0 23.168 2.133 43.093 6.357 59.819 4.267 16.725 12.245 31.957 23.979 45.739s28.587 26.24 50.56 37.376l47.488 24.619c13.483 7.040 23.296 13.995 29.483 20.907 6.144 6.869 9.216 15.019 9.216 24.405 0 9.984-3.456 18.048-10.325 24.192s-16.469 9.216-28.8 9.216c-12.587 0-22.869-2.987-30.763-9.003-7.936-6.016-12.757-13.568-14.507-22.656l-77.397 5.291c6.443 27.264 20.651 48.939 42.667 65.067 21.973 16.128 50.432 24.192 85.291 24.192 36.352 0 64.64-8.576 84.864-25.728s30.336-40.405 30.336-69.717c0-22.571-6.528-41.856-19.584-57.813-13.056-16-34.091-31.317-63.104-45.952l-33.408-18.048zM428.075 489.045v-334.208h-78.293v235.691c-15.232-3.499-34.603-5.291-58.027-5.291v61.568c23.765 0 42.069 3.243 54.955 9.685s21.248 17.28 25.045 32.555h56.32zM679.211 788.437c0 24.363 19.755 44.075 44.075 44.075s44.075-19.755 44.075-44.075c0-24.32-19.755-44.075-44.075-44.075-24.363-0.043-44.075 19.712-44.075 44.075zM254.379 788.437c0 24.363 19.755 44.075 44.075 44.075 24.363 0 44.075-19.755 44.075-44.075s-19.755-44.075-44.075-44.075c-24.363-0.043-44.075 19.712-44.075 44.075zM896 745.088h-42.581v129.664h-623.488c-32.683 0-59.221-26.581-59.221-59.221l-0.128-794.24 623.147 0.128c15.957 0 30.933 6.187 42.155 17.451 11.307 11.264 17.493 26.24 17.493 42.197l0.043 536.832h-597.077v43.179l639.659 0.512-0.043-580.523c0-27.349-10.667-53.035-29.952-72.32s-44.971-29.952-72.277-29.952l-665.728-0.128 0.128 836.864c0 56.149 45.653 101.803 101.803 101.803h666.069v-172.245z" />
<glyph unicode="&#xe920;" glyph-name="camera" d="M900.437 605.995c0 17.28-14.080 31.36-31.36 31.36s-31.36-14.080-31.36-31.36 14.080-31.36 31.36-31.36 31.36 14.080 31.36 31.36zM811.691 388.181c0 102.827-83.627 186.453-186.453 186.453s-186.453-83.627-186.453-186.453 83.627-186.453 186.453-186.453 186.453 83.627 186.453 186.453zM479.957 388.181c0 80.128 65.195 145.28 145.28 145.28 80.128 0 145.28-65.195 145.28-145.28s-65.195-145.28-145.28-145.28c-80.085 0-145.28 65.152-145.28 145.28zM920.021 707.925h-158.080v39.253c0 33.323-27.136 60.459-60.501 60.459h-159.573c-33.323 0-60.501-27.136-60.501-60.459v-39.253h-109.397l-239.36-578.389h-28.629c-11.093 0-20.139 9.045-20.139 20.139v496.939c0 11.093 9.045 20.139 20.139 20.139h79.573v39.893h58.539v-39.893h58.795l17.067 41.173h-34.688v39.893h-140.885v-39.893h-38.4c-33.835 0-61.312-27.477-61.312-61.312v-496.939c0-33.792 27.52-61.312 61.312-61.312h56.149l8.576 20.736 230.784 557.653h123.093v80.427c0 10.624 8.661 19.285 19.285 19.285h159.573c10.667 0 19.285-8.661 19.285-19.285v-80.427h199.253c11.093 0 20.139-9.045 20.139-20.139v-496.939c0-11.093-9.045-20.139-20.139-20.139h-689.067l-17.067-41.173h706.176c33.792 0 61.312 27.52 61.312 61.312v496.939c0 33.835-27.52 61.312-61.312 61.312z" />
<glyph unicode="&#xe921;" glyph-name="captions-closed-off" d="M981.333 789.333l-836.193-0.001c-0.497 0.012-0.995 0.019-1.495 0.019-32.215 0-58.33-26.115-58.33-58.33 0-0.5 0.006-0.998 0.017-1.421v-622.933l798.088 0.015c30.79 2.593 55.005 28.29 55.246 59.718v537.6h42.667v-537.6l-0.001-0.075c-0.79-56.158-46.166-101.534-102.399-102.325h-836.267v665.6l0.001 0.075c0.79 56.158 46.166 101.534 102.399 102.325h836.267zM448 558.933c-62.037 78.507-228.228 42.462-228.228-105.903l0.026 0.446c-0.238-3.321-0.359-6.675-0.359-10.057 0-76.616 62.11-138.726 138.726-138.726 38.445 0 73.237 15.638 98.369 40.907l29.867-25.6-0.050-0.052c-32.489-33.651-78.071-54.579-128.54-54.579-98.668 0-178.654 79.986-178.654 178.654 0 1.398 0.016 2.793 0.044 3.977l0.017-0.417c-0.148 2.966-0.223 5.951-0.223 8.953 0 97.669 79.176 176.845 176.845 176.845 47.35 0 90.354-18.609 122.028-48.848l-29.867-25.6zM793.6 558.933c-62.033 78.507-228.228 42.462-228.228-105.903l0.026 0.446c-0.238-3.321-0.359-6.675-0.359-10.057 0-76.616 62.11-138.726 138.726-138.726 38.445 0 73.237 15.638 98.369 40.907l29.867-25.6-0.050-0.052c-32.489-33.651-78.071-54.579-128.54-54.579-98.668 0-178.654 79.986-178.654 178.654 0 1.398 0.016 2.793 0.044 3.977l0.017-0.417c-0.148 2.966-0.223 5.951-0.223 8.953 0 97.669 79.176 176.845 176.845 176.845 47.35 0 90.354-18.609 122.028-48.848l-29.867-25.6z" />
<glyph unicode="&#xe922;" glyph-name="captions-closed-on" d="M981.333 874.667h-836.267c-56.265-0.712-101.688-46.135-102.399-102.332l-0.001-0.068v-665.6h836.267c56.265 0.712 101.688 46.135 102.399 102.332l0.001 0.068v537.6h-42.667v-537.6c0-31.147-24.32-57.173-55.467-59.733h-797.867v622.933c-0.009 0.388-0.015 0.846-0.015 1.304 0 31.688 25.215 57.486 56.675 58.427l0.087 0.002h839.253v42.667zM42.667 21.333h938.667v42.667h-938.667v-42.667zM702.293 616.107c27.733 0 55.040-8.533 74.24-31.573l46.933 42.667c-31.329 29.325-73.462 47.443-119.825 47.786h-0.069c-113.92 0-178.773-81.92-178.773-183.040s64.853-182.613 178.773-182.613c49.92 0 95.573 20.053 128.427 52.48l-46.933 43.52c-19.627-22.187-46.933-35.413-82.773-35.413-62.72 0-113.493 41.813-113.493 122.88 0 74.667 43.52 123.307 113.493 123.307zM356.693 616.107c27.733 0 55.040-8.533 74.24-31.573l46.933 42.667c-31.329 29.325-73.462 47.443-119.825 47.786h-0.069c-113.92 0-178.773-81.92-178.773-183.040s64.853-182.613 178.773-182.613c49.92 0 95.573 20.053 128.427 52.48l-46.933 43.52c-19.627-22.187-46.933-35.413-82.773-35.413-62.72 0-113.493 41.813-113.493 122.88 0 74.667 43.52 123.307 113.493 123.307z" />
<glyph unicode="&#xe923;" glyph-name="car" d="M266.112 464.853l42.581-130.133h46.891l-28.032 85.632h369.963l-28.075-85.632h46.891l42.581 130.133h-492.8zM757.632 820.864h-405.76c-52.139-0.043-100.309-27.947-126.293-73.173l-136.533-238.464h-89.045v-44.501h63.829l-19.584-34.133v-366.592h179.115v131.925h578.773v-131.499h64.555c62.891 0.085 113.877 50.944 114.133 113.835v252.288l-19.157 34.133h62.336v44.501h-88.021l-101.973 178.091h-51.328l153.6-268.16v-240.853c0-38.443-31.147-69.675-69.589-69.76h-20.48v131.925h-667.819v-131.499h-89.643v310.187l175.403 306.304c18.005 31.488 51.456 50.901 87.723 50.944h431.701l-25.941 44.501z" />
<glyph unicode="&#xe924;" glyph-name="car-checkmark" d="M980.523 887.637h-50.901l-66.176-117.845-82.219-148.096-45.867 80.299-4.309 7.723h-50.901l75.819-133.248-0.128-0.299h51.371l-0.341 0.256 173.653 311.211zM266.112 464.853l42.581-130.133h46.891l-28.032 85.632h369.963l-28.075-85.632h46.891l42.581 130.133h-492.8zM757.632 820.864h-405.76c-52.139-0.043-100.309-27.947-126.293-73.173l-136.533-238.464h-89.045v-44.544h63.829l-19.584-34.133v-366.549h179.115v131.925h578.773v-131.499h64.555c62.891 0.085 113.877 50.944 114.133 113.835v252.288l-19.157 34.133h62.336v44.544h-88.021l-55.808 95.275-25.088-44.501 81.195-140.075v-241.621c0-38.485-31.147-69.675-69.589-69.76h-20.48v131.925h-667.819v-131.499h-89.643v310.187l175.403 306.304c18.005 31.445 51.456 50.859 87.723 50.901h431.701l-25.941 44.501z" />
<glyph unicode="&#xe925;" glyph-name="car-cover" d="M716.373 250.027l42.581 130.304h-492.885l42.581-130.304h46.891l-28.032 85.76h369.963l-28.075-85.76h46.976zM1024 424.533h-88.021l-101.973 178.091h-51.371l153.6-268.16v-240.128c0-38.443-31.147-69.675-69.589-69.76h-20.48v131.2h-667.776v-131.499h-89.643v310.187l175.403 306.475c18.048 31.403 51.499 50.731 87.723 50.773h431.701l-25.387 44.544h-406.315c-52.139-0.128-100.309-27.989-126.293-73.216l-136.533-238.507h-89.045v-44.501h63.829l-19.584-33.408v-366.549h179.115v131.2h578.773v-131.499h64.555c30.336 0.043 59.392 12.16 80.811 33.621 21.419 21.504 33.408 50.603 33.323 80.939v252.288l-19.157 33.408h62.336v44.501zM69.163 915.456h889.387v-177.92h44.501v222.464h-978.432v-222.464h44.501v177.92z" />
<glyph unicode="&#xe926;" glyph-name="car-details" d="M844.544 251.52l44.672 31.317c-2.347 5.291-13.952 25.429-17.365 30.123l-49.835-23.168c-22.357 24.619-57.728 33.323-57.728 33.323l-4.821 54.741c-11.52 1.237-23.296 1.28-34.773 0l-4.864-54.699c-33.536-8.747-57.728-33.323-57.728-33.323l-49.835 23.168c-3.371-4.693-15.019-24.832-17.365-30.123l44.971-31.573c-10.24-36.565 0-66.731 0-66.731l-44.971-31.573c2.347-5.291 13.952-25.429 17.365-30.123l49.877 23.168c24.149-25.429 57.685-33.28 57.685-33.28l4.864-54.741c11.52-1.237 23.253-1.237 34.773 0l4.821 54.741c35.371 8.832 57.728 33.323 57.728 33.323l49.835-23.168c3.413 4.693 15.061 24.832 17.408 30.123l-44.971 31.573c0 0 9.771 24.917 0.256 66.901zM882.773 362.496c41.643-41.899 54.699-94.891 54.699-94.891l-49.451-34.731c0.512-4.864 0.512-25.216 0.085-29.909l49.365-34.645c-19.584-64.981-54.741-94.848-54.741-94.848l-54.613 25.387c-8.192-5.931-16.896-10.965-26.069-15.061l-5.291-59.989c-57.685-15.573-109.525 0-109.525 0l-5.333 60.032c-9.173 4.096-17.877 9.131-26.027 15.019l-54.613-25.387c-39.723 38.357-54.784 94.848-54.784 94.848l49.365 34.645c-0.512 4.992-0.512 25.045 0 30.037l-49.365 34.603c12.117 54.656 54.741 94.848 54.741 94.848l54.656-25.387c8.149 5.931 16.853 10.965 26.027 15.061l5.333 59.989c60.288 15.317 109.568 0 109.568 0l5.291-60.032c9.216-4.096 17.877-9.088 26.069-15.019l54.613 25.429zM908.8 499.968c0 0-61.141 0-61.141 0l-96.384 167.296h-46.464l96.384-167.296h-341.163v-33.707h-220.885l38.571-117.717h42.368l-25.387 77.483h165.333v-162.603h-299.776l0.597-117.461h-21.333c-33.152 0-60.117 26.965-60.117 60.117v218.837l160.085 277.931c15.957 27.733 45.739 44.928 77.739 44.928h387.712l-23.168 40.192h-364.501c-46.336 0-89.472-24.96-112.597-65.067l-124.8-216.619h-79.872v-40.235h56.704l-17.536-30.421v-229.632c0-55.339 45.013-100.352 100.352-100.352h61.781l-0.597 117.504h259.328v-171.947c0-63.531 51.669-115.2 115.2-115.2h448.768v448.768c0 63.531-51.669 115.2-115.2 115.2zM983.765-23.765h-408.533c-41.344 0-74.965 33.621-74.965 74.965v408.533h408.533c41.344 0 74.965-33.621 74.965-74.923v-408.576z" />
<glyph unicode="&#xe927;" glyph-name="car-hand-finger" d="M427.221 596.693h-170.112v-83.755h-43.051v213.291l114.773 177.408c5.376 8.789 15.104 14.208 25.387 14.251l381.312 0.171-27.008 41.941-354.304-0.171c-24.789 0-48.213-13.141-60.885-33.835l-60.971-94.251h-60.544v-41.984h33.408l-33.109-51.157v-267.648h126.976v83.755h128.128v41.984zM852.181 831.744h-111.147l18.347-28.245 50.475-78.293v-163.328c0-25.003-18.816-45.653-43.051-48.597v83.413h-169.003v-41.984h127.019v-64.043l36.053-19.712c13.056 0 25.515 2.773 36.736 7.765 31.872 14.123 54.187 46.080 54.187 83.157v175.701l-33.621 52.181h34.005v41.984zM739.84 454.059l-164.181 42.112v128.256c0 44.373-33.579 79.147-76.459 79.147h-51.285v-237.867h-66.219c-21.931 0-39.765-17.835-39.765-39.765v-122.283c0-57.856 66.987-142.379 116.565-197.035h-31.275v-65.707c0-57.813 46.379-104.875 103.381-104.875h195.669l-1.749 170.581h-207.573c-58.325 59.989-132.352 151.339-132.352 197.035v119.424h63.317v-110.208h42.667v348.032h8.619c19.285 0 33.792-15.659 33.792-36.48v-161.408l190.891-48.597c13.099-6.784 13.781-22.443 10.24-51.243-2.347-19.2-5.973-36.181-10.581-57.643l-29.44-113.664h43.861l27.307 104.747c4.651 21.632 8.661 40.32 11.349 62.507 2.987 24.149 9.131 74.539-36.779 94.933zM469.888 63.915h212.267l1.237-85.248h-152.789c-33.493 0-60.715 27.904-60.715 62.208v23.040z" />
<glyph unicode="&#xe928;" glyph-name="car-info" d="M709.333 253.269v-184.533h82.517v184.533h-82.517zM750.080 289.707c13.141 0 24.235 4.651 33.323 13.867 9.088 9.301 13.653 20.309 13.653 33.109 0 13.099-4.523 24.192-13.653 33.323-9.088 9.088-20.224 13.653-33.323 13.653-12.8 0-23.723-4.523-32.853-13.653-9.088-9.088-13.653-20.224-13.653-33.323s4.523-24.192 13.653-33.323c9.088-9.088 20.053-13.653 32.853-13.653zM908.8 499.925h-61.141l-96.384 167.381h-46.421l96.384-167.381h-341.163v-33.707h-220.928l38.571-117.76h42.368l-25.344 77.525h165.333v-162.645h-299.776l0.555-117.419h-21.291c-33.195 0-60.203 26.923-60.203 60.117v218.88l160.085 277.888c16 27.733 45.781 45.013 77.781 45.013h387.755l-23.211 40.149h-364.501c-46.379 0-89.472-24.917-112.64-65.067l-124.8-216.619h-79.829v-40.235h56.661l-17.536-30.379v-229.632c0-55.339 45.099-100.437 100.437-100.437h61.781l-0.555 117.504h259.285v-171.904c0-63.531 51.584-115.2 115.115-115.2h448.811v448.811c0 63.488-51.669 115.115-115.2 115.115zM983.765-23.765h-408.576c-41.259 0-74.965 33.664-74.965 74.965v408.576h408.576c41.387 0 74.965-33.664 74.965-74.965v-408.576z" />
<glyph unicode="&#xe929;" glyph-name="car-people" d="M354.304 740.267c-52.309 0-101.632-28.416-127.061-73.259l-137.515-240.683h-89.728v-44.843h64.299l-19.456-34.389v-369.237h179.371v133.035h559.104v-174.891h88.192c40.363 0 73.259 32.896 73.259 73.259v164.437l44.843 171.904h-46.336l-41.856-164.437v-173.397c0-14.933-11.947-28.416-28.416-28.416h-44.843v201.813c0 1.493-28.416 145.024-47.829 222.72-1.493 2.987 0 7.467 1.493 10.453 4.48 4.48 8.96 5.973 14.933 5.973h215.253l11.989 44.885h-228.693c-19.456 0-37.376-7.467-49.323-22.443-10.453-13.44-14.933-31.403-10.453-47.829 17.963-71.765 43.349-200.32 47.829-218.24v-19.413h-603.989v-133.035h-91.179v310.955l176.384 307.968c17.92 31.403 52.309 50.816 88.192 50.816h435.029l-25.429 44.843-408.064 1.451zM913.365 602.709c0-23.936-19.456-41.856-41.856-41.856s-41.856 19.413-41.856 41.856c0 23.936 19.456 41.856 41.856 41.856 22.443 0 41.856-17.92 41.856-41.856zM870.016 689.408c-47.829 0-86.699-38.869-86.699-86.699s38.869-86.699 86.699-86.699c47.829 0 86.699 38.869 86.699 86.699 1.536 47.829-37.376 86.699-86.699 86.699z" />
<glyph unicode="&#xe92a;" glyph-name="car-search" d="M908.8 499.968h-61.141l-96.384 167.296h-46.464l96.384-167.296h-341.163v-33.707h-220.885l38.571-117.717h42.368l-25.387 77.483h165.333v-162.603h-299.776l0.597-117.504h-21.333c-33.152 0-60.117 26.965-60.117 60.117v218.837l160.085 277.931c15.957 27.691 45.739 44.928 77.739 44.928h387.669l-23.168 40.192h-364.501c-46.336 0-89.472-24.917-112.597-65.067l-124.8-216.619h-79.829v-40.235h56.661l-17.536-30.379v-229.632c0-55.339 45.013-100.352 100.352-100.352h61.824l-0.597 117.504h259.328v-171.947c0-63.531 51.669-115.2 115.2-115.2h448.768v448.768c0 63.531-51.669 115.2-115.2 115.2zM983.765-23.765h-408.533c-41.344 0-74.965 33.621-74.965 74.965v408.533h408.533c41.344 0 74.965-33.621 74.965-74.923v-408.576zM822.997 166.357l6.955 9.6-52.437 3.371c-5.035-4.779-10.837-8.576-16.64-12.331h-0.853l0.341-0.341c-24.704-15.701-55.211-21.888-85.547-13.227-56.576 16.085-89.515 75.179-73.429 131.797s75.179 89.515 131.797 73.429c56.576-16.085 89.515-75.179 73.429-131.797-1.024-3.627-2.688-6.827-4.053-10.24l45.099-1.408c22.571 79.317-23.467 161.92-102.784 184.491s-161.92-23.467-184.491-102.784c-22.571-79.317 23.467-161.92 102.784-184.491 45.909-13.056 92.672-2.987 128.427 23.083l113.579-113.579 30.165 30.165-113.28 113.28c0.299 0.299 0.64 0.597 0.939 0.981z" />
<glyph unicode="&#xe92b;" glyph-name="car-shield" d="M983.211 187.093c-0.043-37.163-17.749-72.064-47.744-93.995l-155.349-107.179-155.221 107.051c-30.123 21.888-47.957 56.875-48 94.123v271.104l203.093 49.493 203.221-49.493v-271.104zM807.723 542.933l-43.264 75.477h-46.933l42.155-73.728-223.488-54.4v-75.776h-292.181l39.168-119.296h42.453l-25.728 78.507h236.288v-164.864h-372.267v-120.533h-83.115v284.288l161.451 280.747c16.512 28.757 47.104 46.549 80.256 46.677h395.307l-23.381 40.789h-371.925c-47.744-0.043-91.819-25.6-115.627-67.029l-125.269-218.581h-81.621v-40.789h58.368l-18.347-30.891v-336h164.736v120.533h332.587c5.333-43.648 28.587-83.072 64.213-108.8l178.56-123.264 178.859 123.52c40.789 29.568 64.939 76.843 65.024 127.189v303.616l-216.277 52.608z" />
<glyph unicode="&#xe92c;" glyph-name="car-smile" d="M801.792 236.8v120.704h40.235v-120.704h-40.235zM641.963 236.8v120.704h40.235v-120.704h-40.235zM742.016 120.107c58.88 0 114.816 25.515 153.472 70.016l30.379-26.368c-46.293-53.291-113.28-83.883-183.851-83.883-70.528 0-137.557 30.592-183.851 83.883l30.379 26.368c38.656-44.501 94.592-70.016 153.472-70.016zM983.765-23.083v408.533c0 41.344-33.621 74.923-74.923 74.923h-408.533v-408.533c0-41.344 33.621-74.965 74.923-74.965h408.533zM908.8 500.651c63.488 0 115.2-51.669 115.2-115.2v-448.768h-448.768c-63.488 0-115.2 51.669-115.2 115.2v171.947h-259.328l0.64-117.461h-61.824c-55.339 0-100.395 45.013-100.395 100.352v229.632l17.536 30.421h-56.661v40.235h79.872l124.8 216.576c23.083 40.149 66.261 65.067 112.555 65.067h364.501l23.168-40.192-387.669-0.043c-31.957 0-61.739-17.237-77.696-44.928l-160.085-277.931v-218.837c0-33.152 26.965-60.117 60.117-60.117h21.333l-0.597 117.461h299.776v162.603h-165.419l25.387-77.483h-42.325l-38.571 117.717h220.928v33.749h341.163l-96.384 167.296h46.464l96.384-167.296h61.099z" />
<glyph unicode="&#xe92d;" glyph-name="car-square-checkmark" d="M696.917 136.021l140.843 243.968 34.859-20.096-174.635-302.464-86.613 141.056 34.304 21.035 51.243-83.499zM908.8 500.651h-61.141l-96.384 167.296h-46.464l96.384-167.296h-341.163v-33.749h-220.928l38.613-117.717h42.325l-25.387 77.483h165.376v-162.56h-299.776l0.597-117.461h-21.333c-33.152 0-60.117 26.965-60.117 60.117v218.837l160.128 277.931c15.915 27.691 45.696 44.928 77.696 44.928h387.669l-23.168 40.192h-364.501c-46.336 0-89.472-24.917-112.597-65.067l-124.8-216.619h-79.829v-40.235h56.704l-17.536-30.421v-229.632c0-55.339 45.013-100.352 100.352-100.352h61.781l-0.597 117.504h259.328v-171.947c0-63.531 51.669-115.2 115.157-115.2h448.811v448.768c0 63.531-51.712 115.2-115.2 115.2zM983.765-23.083h-408.576c-41.301 0-74.923 33.621-74.923 74.965v408.533h408.533c41.344 0 74.923-33.621 74.923-74.923v-408.576z" />
<glyph unicode="&#xe92e;" glyph-name="car-square-cross" d="M908.8 501.333h-61.141l-96.384 167.296h-46.464l96.384-167.296h-341.163v-33.749h-220.885l38.571-117.717h42.368l-25.387 77.483h165.376v-162.603h-299.819l0.597-117.461h-21.333c-33.152 0-60.117 26.965-60.117 60.117v218.837l160.128 277.931c15.957 27.691 45.739 44.885 77.696 44.885l387.669 0.043-23.168 40.235h-364.501c-46.336 0-89.472-24.917-112.597-65.067l-124.8-216.619h-79.829v-40.235h56.661l-17.536-30.421v-229.589c0-55.339 45.013-100.352 100.352-100.352h61.781l-0.597 117.461h259.328v-171.947c0-63.488 51.669-115.2 115.2-115.2h448.811v448.811c0 63.488-51.669 115.157-115.2 115.157zM983.765-22.357h-408.533c-41.344 0-74.965 33.621-74.965 74.923v408.533h408.533c41.344 0 74.965-33.621 74.965-74.923v-408.533zM827.392 334.848l-85.376-85.376-85.376 85.376-30.123-30.123 85.376-85.376-85.376-85.376 30.123-30.123 85.376 85.376 85.376-85.376 30.123 30.123-85.376 85.376 85.376 85.376-30.123 30.123z" />
<glyph unicode="&#xe92f;" glyph-name="car-square-person" d="M743.979 378.155c-41.088 0-74.496-33.408-74.496-74.496s33.408-74.496 74.496-74.496c41.088 0 74.496 33.408 74.496 74.496s-33.408 74.496-74.496 74.496zM743.979 269.397c-18.901 0-34.261 15.36-34.261 34.261s15.36 34.261 34.261 34.261c18.859 0 34.261-15.36 34.261-34.261s-15.403-34.261-34.261-34.261zM908.8 499.968h-61.141l-96.384 167.296h-46.464l96.384-167.296h-341.163v-33.749h-220.885l38.571-117.717h42.368l-25.387 77.483h165.376v-162.603h-299.819l0.597-117.461h-21.333c-33.152 0-60.117 26.965-60.117 60.117v218.837l160.128 277.931c15.957 27.691 45.739 44.885 77.696 44.885l387.669 0.043-23.168 40.235h-364.501c-46.336 0-89.472-24.917-112.597-65.067l-124.8-216.619h-79.829v-40.235h56.661l-17.493-30.421v-229.589c0-55.339 45.013-100.352 100.352-100.352h61.781l-0.597 117.461h259.328v-171.947c0-63.488 51.669-115.2 115.2-115.2h448.768v448.768c0 63.531-51.669 115.2-115.2 115.2zM983.765-23.765h-167.552l28.757 112.427-38.997 9.984-31.317-122.411h-70.741c-8.064 39.552-23.637 114.219-35.285 160.683-0.811 3.157-0.427 5.717 1.152 7.723 2.176 2.773 6.4 4.48 11.307 4.48h174.848v40.235h-174.848c-17.451 0-33.109-7.253-43.008-19.925-9.301-11.904-12.331-26.923-8.491-42.24 10.709-42.837 24.875-110.251 33.195-150.955h-87.637c-41.344 0-74.965 33.621-74.965 74.923v408.533h408.619c41.344 0 74.965-33.621 74.965-74.923v-408.533z" />
<glyph unicode="&#xe930;" glyph-name="car-square-plus" d="M908.8 499.968h-61.141l-96.384 167.296h-46.464l96.384-167.296h-341.163v-33.749h-220.885l38.571-117.717h42.368l-25.387 77.483h165.376v-162.603h-299.819l0.597-117.461h-21.333c-33.152 0-60.117 26.965-60.117 60.117v218.837l160.128 277.931c15.957 27.691 45.739 44.885 77.696 44.885l387.669 0.043-23.168 40.235h-364.501c-46.336 0-89.472-24.917-112.597-65.067l-124.8-216.619h-79.829v-40.235h56.661l-17.493-30.421v-229.589c0-55.339 45.013-100.352 100.352-100.352h61.781l-0.597 117.461h259.328v-171.947c0-63.488 51.669-115.2 115.2-115.2h448.768v448.768c0 63.531-51.669 115.2-115.2 115.2zM983.765-23.765h-408.533c-41.344 0-74.965 33.621-74.965 74.923v408.533h408.533c41.344 0 74.965-33.621 74.965-74.923v-408.533zM763.349 372.48h-42.667v-133.163h-132.395v-42.667h132.395v-133.163h42.667v133.163h132.395v42.667h-132.395v133.163z" />
<glyph unicode="&#xe931;" glyph-name="car-square-questionmark" d="M908.8 501.333h-61.141l-96.384 167.296h-46.464l96.384-167.296h-341.163v-33.749h-220.885l38.571-117.717h42.368l-25.387 77.483h165.376v-162.603h-299.819l0.597-117.461h-21.333c-33.152 0-60.117 26.965-60.117 60.117v218.837l160.128 277.931c15.957 27.691 45.739 44.885 77.696 44.885l387.669 0.043-23.168 40.235h-364.501c-46.336 0-89.472-24.917-112.597-65.067l-124.8-216.619h-79.829v-40.235h56.661l-17.536-30.421v-229.589c0-55.339 45.013-100.352 100.352-100.352h61.781l-0.597 117.461h259.328v-171.947c0-63.488 51.669-115.2 115.2-115.2h448.811v448.811c0 63.488-51.669 115.157-115.2 115.157zM983.765-22.357h-408.533c-41.344 0-74.965 33.621-74.965 74.923v408.533h408.533c41.344 0 74.965-33.621 74.965-74.923v-408.533zM701.781 125.099c-6.741-6.741-10.155-15.061-10.155-24.661 0-9.301 3.371-17.493 10.027-24.32s15.189-10.453 24.747-10.453c9.515 0 18.048 3.627 24.747 10.453s10.027 15.061 10.027 24.32c0 9.643-3.413 17.92-10.155 24.661-13.397 13.44-35.84 13.397-49.237 0zM826.027 335.275c-7.125 11.733-17.536 21.163-31.019 27.904-13.184 6.571-28.843 9.899-46.507 9.899-22.699 0-42.539-5.291-59.008-15.744-16.384-10.453-29.099-24.789-37.717-42.624l-4.437-9.131 43.221-20.949 4.736 8.021c6.101 10.197 13.312 18.389 21.333 24.192 7.381 5.333 17.835 8.021 31.104 8.021 12.459 0 21.888-2.645 28.075-7.893 5.76-4.907 8.576-12.245 8.576-22.485 0-7.424-1.536-13.397-4.651-18.304-3.243-5.035-8.192-9.387-14.848-13.013l-9.984-5.547c-13.696-7.765-24.533-15.573-32.043-23.253-8.021-8.064-13.696-17.707-17.024-28.629-3.115-10.368-4.651-22.997-4.651-38.656v-20.437h51.883v26.325c0 10.965 1.792 19.712 5.333 25.984 3.456 6.144 9.813 11.733 18.901 16.725l10.667 5.888c32.299 17.835 48.683 42.709 48.683 74.027 0 14.549-3.541 27.861-10.624 39.68z" />
<glyph unicode="&#xe932;" glyph-name="car-square-rss" d="M908.8 500.864h-61.184l-96.384 167.595h-46.464l96.384-167.595h-341.163v-33.792h-220.843l38.571-117.931h42.368l-25.387 77.611h165.376v-162.859h-299.819l0.597-117.675h-21.333c-33.152 0-60.117 27.008-60.117 60.203v219.179l160.128 278.4c15.957 27.733 45.739 44.971 77.696 44.971l387.669 0.085-23.168 40.277h-364.501c-46.336 0-89.472-24.96-112.597-65.152l-124.8-216.96h-79.829v-40.32h56.661l-17.536-30.464v-229.973c0-55.424 45.013-100.523 100.352-100.523h61.781l-0.597 117.675h259.328v-172.245c0-63.616 51.669-115.371 115.2-115.371h448.811v449.536c0 63.573-51.669 115.328-115.2 115.328zM983.765-23.68h-408.533c-41.344 0-74.923 33.664-74.923 75.051v409.216h408.491c41.344 0 74.923-33.664 74.923-75.051v-409.216zM566.827 173.355v-42.667c48.213 0 87.424-39.211 87.424-87.424h42.667c0 71.723-58.368 130.091-130.091 130.091zM566.827 282.197v-42.667c108.245 0 196.267-88.064 196.267-196.267h42.667c0 131.755-107.179 238.933-238.933 238.933zM566.827 393.6v-42.667c169.643 0 307.669-138.027 307.669-307.669h42.667c0.043 193.195-157.141 350.336-350.336 350.336z" />
<glyph unicode="&#xe933;" glyph-name="car-square-shield" d="M908.8 500.864h-61.141l-96.384 167.595h-46.464l96.384-167.595h-341.163v-33.792h-220.885l38.571-117.931h42.368l-25.387 77.611h165.376v-162.859h-299.819l0.597-117.675h-21.333c-33.152 0-60.117 27.008-60.117 60.203v219.179l160.128 278.4c15.957 27.733 45.739 44.971 77.696 44.971l387.669 0.085-23.168 40.277h-364.501c-46.336 0-89.472-24.96-112.597-65.152l-124.8-216.96h-79.829v-40.32h56.661l-17.536-30.464v-229.973c0-55.424 45.013-100.523 100.352-100.523h61.781l-0.597 117.675h259.328v-172.245c0-63.616 51.669-115.371 115.2-115.371h448.811v449.536c0 63.573-51.669 115.328-115.2 115.328zM983.765-23.68h-408.533c-41.344 0-74.965 33.664-74.965 75.051v409.216h408.533c41.344 0 74.965-33.664 74.965-75.051v-409.216zM574.379 386.816v-204.715c0-35.456 17.152-68.992 46.251-90.027l121.387-83.797 121.771 84.053c28.715 20.779 45.867 54.315 45.867 89.728v204.715l-167.637 40.875-167.637-40.832zM866.944 182.101c0-21.803-10.539-42.411-28.203-55.211l-96.768-66.731-97.109 67.072c-17.152 12.373-27.819 33.067-27.819 54.869v171.179l124.971 30.464 124.971-30.464v-171.179z" />
<glyph unicode="&#xe934;" glyph-name="car-waves" d="M266.112 379.989h492.843l-42.581-130.133h-46.891l28.032 85.632h-369.963l28.032-85.632h-46.891l-42.581 130.133zM834.048 602.453l101.931-178.091h88.021v-44.501h-62.336l19.157-33.408v-252.288c0.085-30.336-11.904-59.435-33.323-80.939s-50.475-33.579-80.811-33.621h-64.555v131.499h-578.773v-131.2h-179.115v366.549l19.584 33.408h-63.829v44.501h89.045l136.533 238.507c25.984 45.227 74.155 73.131 126.293 73.173h406.315l25.387-44.544h-431.701c-36.267 0-69.717-19.413-87.723-50.901l-175.403-306.304v-310.187h89.643v131.499h667.861v-131.2h20.48c38.443 0.085 69.589 31.275 69.589 69.76v240.128l-153.6 268.16h51.328zM850.347 840.363c20.821-21.035 33.323-48.853 35.328-78.336h-44.501c-1.835 17.92-9.685 34.645-22.272 47.488-11.051 10.88-25.088 18.133-40.363 20.907v44.501c27.093-3.2 52.352-15.36 71.808-34.56zM778.539 960c52.139 0.725 102.272-20.096 138.496-57.557s55.339-88.277 52.779-140.373h-44.501c1.92 41.344-13.269 81.664-41.984 111.445-28.032 27.221-65.707 42.325-104.789 41.984v44.501z" />
<glyph unicode="&#xe935;" glyph-name="car-wrench" d="M984.448-23.381h-406.997c-40.96 0.128-74.197 33.195-74.539 74.155v406.827h406.827c41.003-0.299 74.069-33.579 74.155-74.539l0.555-406.443zM909.781 497.707h-66.816l-91.776 160.341h-46.379l91.776-160.341h-333.739v-241.963h-301.867v-118.4h-81.067v279.253l158.080 275.755c16.213 28.203 46.293 45.653 78.805 45.696h388.267l-22.997 40.064h-365.269c-46.891-0.085-90.197-25.173-113.579-65.877l-123.051-214.571h-80.171v-40.064h57.344l-17.365-30.336v-330.027h161.152v118.4h261.76v-164.864c0.085-63.36 51.413-114.688 114.773-114.773h446.336v447.061c-0.085 63.147-51.115 114.347-114.219 114.645zM625.451 52.651c-1.536-0.085-3.072 0.384-4.267 1.323l-39.424 39.296 193.493 166.229-6.272 13.355c-11.307 24.405-8.917 52.949 6.229 75.136 15.189 22.187 40.96 34.773 67.755 33.067l-32.725-32.213 19.243-52.096 53.461-21.248 31.659 31.659c0.597-26.752-12.843-51.84-35.413-66.176s-50.987-15.829-74.965-3.968l-14.165 7.083-156.715-188.629c-2.261-1.835-5.035-2.816-7.893-2.816zM801.536 194.944c44.203-14.72 92.971-1.707 123.904 33.109 30.976 34.816 38.187 84.779 18.389 126.933l-12.16 25.771-58.368-58.368-12.544 5.077-4.139 11.221 58.667 58.667-24.832 12.416c-41.728 20.864-91.904 14.848-127.488-15.36s-49.707-78.72-35.883-123.307l-204.16-175.573 69.888-69.888c8.661-8.619 20.395-13.44 32.597-13.355 13.739 0 26.965 5.419 36.736 15.104l139.392 167.552z" />
<glyph unicode="&#xe936;" glyph-name="challenge" d="M912.981 960c-0.597-40.661-7.040-81.067-19.115-119.893-16.469-44.459-41.813-82.091-69.205-96.469 14.336 63.744 21.547 128.853 21.504 194.176v22.187h-668.288v-22.229c0-65.323 7.125-130.432 21.333-194.176-24.021 12.587-46.677 43.435-63.147 80.341-16.981 43.349-25.515 89.515-25.045 136.064h-44.459v-22.229c1.408-54.741 15.744-108.373 41.813-156.501 28.629-52.309 65.195-82.731 103.765-87.467 44.459-155.605 131.029-277.888 233.003-316.885v-180.224c1.067-29.909-20.395-55.936-49.963-60.629h-150.613v-200.064h534.443v222.336h-244.565v-44.459h200.107v-133.376h-444.629v111.147h109.525c52.821 6.613 92.117 52.139 90.837 105.387v212.096l-16.469 4.608c-149.973 44.416-244.949 289.707-251.179 501.803h578.773c-6.357-212.096-101.205-457.387-251.221-501.845l-16.171-4.608v-162.005h44.459v129.408c102.101 38.827 188.075 161.237 233.429 317.013 38.528 4.736 75.008 35.115 103.723 87.467 26.069 48.171 40.363 101.803 41.813 156.501v22.229l-44.459 0.299z" />
<glyph unicode="&#xe937;" glyph-name="chat" d="M810.624 532.523c0 5.504-0.512 10.88-0.811 16.341h37.291c15.147 0 27.477-12.331 27.477-27.477v-159.445c0-13.056-9.173-23.936-21.376-26.752v-42.88c35.84 3.157 64.128 32.981 64.128 69.589v159.445c0 38.741-31.488 70.229-70.229 70.229h-42.283c-11.776 59.264-41.173 113.408-85.717 156.459-59.008 56.96-136.661 86.784-218.837 83.755-137.173-4.864-252.288-107.52-281.429-240.213h-41.941c-38.741 0-70.229-31.488-70.229-70.229v-159.445c0-38.741 31.488-70.229 70.229-70.229h77.525v234.112c0 140.288 110.933 258.389 247.339 263.211 70.272 2.517 137.045-22.997 187.648-71.808 50.603-48.853 78.464-114.432 78.464-184.747v-305.237c0-43.904-35.712-79.659-79.616-79.659h-48.341v37.077h-235.648v-126.72h235.605v46.891h48.341c67.499 0 122.411 54.912 122.411 122.411v305.323zM211.669 525.824v-191.36h-34.773c-15.147 0-27.477 12.331-27.477 27.477v159.445c0 15.147 12.331 27.477 27.477 27.477h35.627c-0.555-7.637-0.853-15.317-0.853-23.040zM597.12 100.736h-150.101v41.216h150.101v-41.216z" />
<glyph unicode="&#xe938;" glyph-name="chat1" d="M556.459 192.768h297.728v-47.573h-297.728v47.573zM556.459 321.408h297.728v-47.573h-297.728v47.573zM556.459 449.621h297.728v-47.573h-297.728v47.573zM386.347 319.701h-234.24c-59.477 0.085-107.691 48.299-107.776 107.776v447.829h447.829c59.477-0.085 107.691-48.299 107.776-107.776v-147.797h-42.581v147.797c-0.085 35.968-29.227 65.109-65.195 65.152h-405.248v-405.248c0.085-35.968 29.227-65.109 65.152-65.152h234.283v-42.581zM982.997 20.693h-447.829c-59.477 0.085-107.691 48.299-107.776 107.776v321.024h42.581v-321.024c0.085-35.968 29.227-65.109 65.152-65.152h405.248v405.205c-0.085 35.968-29.227 65.109-65.152 65.152h-446.251v42.624h446.251c59.477-0.085 107.691-48.299 107.776-107.776v-447.829z" />
<glyph unicode="&#xe939;" glyph-name="checkmark" d="M379.733 264.533l443.733 469.333c17.067 17.067 42.667 17.067 59.733 0s17.067-42.667 0-59.733l-473.6-499.2c-17.067-17.067-42.667-17.067-59.733 0l-209.067 243.2c-17.067 17.067-17.067 42.667 0 59.733s42.667 17.067 59.733 0l179.2-213.333z" />
<glyph unicode="&#xe93a;" glyph-name="checkmark-circle" d="M387.541 443.605l-35.883-20.523 121.003-211.243 252.16 468.139-36.437 19.627-216.832-402.603-84.011 146.603zM512 917.333c-258.816 0-469.333-210.517-469.333-469.333s210.517-469.333 469.333-469.333c179.157 0 340.139 99.669 420.224 260.096l-36.992 18.475c-73.003-146.304-219.861-237.184-383.189-237.184-235.989 0-427.989 192-427.989 427.989s192 427.989 427.989 427.989c235.989 0 427.989-192 427.989-427.989 0-24.149-2.005-48.256-5.973-71.765l40.789-6.869c4.267 25.685 6.485 52.139 6.485 78.592 0 258.816-210.517 469.333-469.333 469.333z" />
<glyph unicode="&#xe93b;" glyph-name="checkmark-square" d="M371.669 432.939l-35.669-20.437 120.235-209.963 250.667 465.323-36.224 19.499-215.552-400.171-83.456 145.749zM225.963 20.267c-78.421 0-142.165 63.787-142.165 142.165v713.301h713.301c78.421 0 142.165-63.787 142.165-142.208v-629.589h41.088v629.632c0 101.077-82.219 183.296-183.296 183.296h-754.389v-754.432c0-101.035 82.219-183.296 183.296-183.296h755.371v41.088h-755.371z" />
<glyph unicode="&#xe93c;" glyph-name="chevron-down" d="M896 582.699l-60.331 60.331-329.173-329.131-329.131 329.131-60.331-60.331 388.267-390.699 1.195 1.195 1.195-1.195z" />
<glyph unicode="&#xe93d;" glyph-name="chevron-left" d="M677.163 58.496l60.373 60.331-329.173 329.173 329.173 329.131-60.373 60.373-390.699-388.309 1.237-1.195-1.237-1.195z" />
<glyph unicode="&#xe93e;" glyph-name="chevron-right" d="M346.837 58.496l-60.373 60.331 329.173 329.173-329.173 329.131 60.373 60.373 390.699-388.309-1.237-1.195 1.237-1.195z" />
<glyph unicode="&#xe93f;" glyph-name="chevron-up" d="M122.496 252.331l60.331-60.331 329.173 329.131 329.131-329.131 60.373 60.331-388.309 390.699-1.195-1.195-1.195 1.195z" />
<glyph unicode="&#xe940;" glyph-name="choose-car" d="M853.333 544.896h-111.573l18.389-27.776 50.645-76.672v-159.147c0-24.021-18.304-44.373-42.795-47.488v81.664h-169.941v-41.643h127.403v-81.835h36.224c50.389 0.085 91.179 39.851 91.179 88.875v171.947l-33.664 51.115h34.133v40.96zM426.88 315.477h-171.179v-81.92h-42.795v208.299l115.115 173.184c5.461 8.619 15.147 13.867 25.557 13.867h382.763l-27.264 40.96h-355.371c-24.875-0.128-47.957-12.587-61.184-33.067l-61.525-91.904h-60.331v-40.96h33.536l-33.237-49.579v-261.931h127.403v81.365h128.384l0.128 41.685z" />
<glyph unicode="&#xe941;" glyph-name="circle-ellipsis" d="M300.117 530.261c-0.013 0-0.028 0-0.043 0-44.065 0-79.787-35.722-79.787-79.787s35.722-79.787 79.787-79.787c44.065 0 79.787 35.722 79.787 79.787 0 0.015 0 0.030 0 0.045v-0.002c-0.053 44.020-35.724 79.691-79.739 79.744h-0.005zM300.117 412.075c-0.006 0-0.014 0-0.021 0-21.22 0-38.421 17.202-38.421 38.421s17.202 38.421 38.421 38.421c21.212 0 38.409-17.19 38.421-38.399v-0.001c-0.029-21.205-17.199-38.389-38.395-38.443h-0.005zM726.784 530.261c-0.013 0-0.028 0-0.043 0-44.065 0-79.787-35.722-79.787-79.787s35.722-79.787 79.787-79.787c44.065 0 79.787 35.722 79.787 79.787 0 0.015 0 0.030 0 0.045v-0.002c-0.053 44.020-35.724 79.691-79.739 79.744h-0.005zM726.784 412.075c-0.006 0-0.014 0-0.021 0-21.22 0-38.421 17.202-38.421 38.421s17.202 38.421 38.421 38.421c21.212 0 38.409-17.19 38.421-38.399v-0.001c-0.029-21.205-17.199-38.389-38.395-38.443h-0.005zM513.451 530.261c-0.013 0-0.028 0-0.043 0-44.065 0-79.787-35.722-79.787-79.787s35.722-79.787 79.787-79.787c44.065 0 79.787 35.722 79.787 79.787 0 0.015 0 0.030 0 0.045v-0.002c-0.053 44.020-35.724 79.691-79.739 79.744h-0.005zM513.451 412.075c-0.006 0-0.014 0-0.021 0-21.22 0-38.421 17.202-38.421 38.421s17.202 38.421 38.421 38.421c21.212 0 38.409-17.19 38.421-38.399v-0.001c-0.029-21.205-17.199-38.389-38.395-38.443h-0.005zM512 917.333h0.030c259.048-0.315 468.987-210.255 469.303-469.333v-0.005c-0.007-27.774-2.396-54.992-6.571-78.629l-40.747 6.869-0.37-2.602c4.148 24.164 6.32 49.004 6.343 74.368v0.009c-0.099 236.384-191.757 427.981-428.164 427.981-236.469 0-428.164-191.696-428.164-428.164s191.696-428.164 428.164-428.164c166.988 0 311.648 95.595 383.364 237.49l37.035-18.432-1.23-2.676c-77.431-152.713-235.922-257.378-418.86-257.378-259.206 0-469.333 210.128-469.333 469.333 0 259.158 210.051 469.257 469.199 469.333z" />
<glyph unicode="&#xe942;" glyph-name="clock" d="M493.184 743.083l0.213-295.509 169.301-191.616 31.019 27.392-158.976 179.883-0.213 279.893-41.344-0.043zM512 917.333c-258.816 0-469.333-210.517-469.333-469.333 0-258.773 210.517-469.333 469.333-469.333 179.157 0 340.181 99.627 420.224 260.053l-36.992 18.475c-73.003-146.304-219.861-237.184-383.232-237.184-235.989 0-427.989 192-427.989 427.989s192 427.989 427.989 427.989c235.989 0 427.989-192 427.989-427.989 0-24.021-2.005-48.171-5.973-71.723l40.789-6.869c4.309 25.813 6.528 52.267 6.528 78.592 0 258.816-210.517 469.333-469.333 469.333z" />
<glyph unicode="&#xe943;" glyph-name="cloud" d="M730.752 608.427c-14.891 0.043-29.696-1.536-44.203-4.693-44.971 83.243-132.736 134.357-227.371 132.352s-180.181-56.747-221.653-141.824l37.419-18.304c35.797 73.387 110.763 119.509 192.427 118.4s155.307-49.323 189.056-123.648l7.637-16.768 17.451 5.419c15.957 4.864 32.512 7.339 49.195 7.339 91.861 0 166.357-74.453 166.357-166.357 0-91.861-74.453-166.357-166.357-166.357h-473.045c-68.224 0-125.056 52.395-130.475 120.448-5.419 68.011 42.325 128.811 109.696 139.605s131.755-31.957 147.883-98.304l40.491 9.856c-21.461 87.253-106.325 143.403-194.987 129.067-88.704-14.336-151.509-94.421-144.341-183.979 7.125-89.557 81.877-158.592 171.733-158.677h473.088c114.816 0 207.915 93.099 207.915 207.915s-93.099 207.915-207.915 207.915v0.597z" />
<glyph unicode="&#xe944;" glyph-name="cloud-co2" d="M337.195 489.131c8.789 5.632 18.901 8.491 30.208 8.491 13.269 0 24.661-3.755 34.219-11.221 9.515-7.467 16.299-17.621 20.267-30.464l51.925 4.224c-3.968 16.299-10.837 30.635-20.565 43.179-9.728 12.459-21.888 22.187-36.48 29.184s-30.763 10.453-48.512 10.453c-21.589 0-40.789-4.949-57.6-14.891-16.811-9.899-29.909-23.381-39.168-40.448-9.259-17.024-13.909-35.84-13.909-56.448 0-20.779 4.693-39.637 14.037-56.576 9.387-16.896 22.528-30.251 39.467-39.979s36.096-14.635 57.472-14.635c18.133 0 34.517 3.541 49.067 10.539 14.592 6.955 26.667 16.768 36.224 29.355s16.213 27.093 20.011 43.563l-51.627 4.267c-3.797-12.288-10.581-22.272-20.309-29.952s-21.035-11.477-33.92-11.477c-10.965 0-20.949 2.816-29.909 8.363-9.003 5.589-16.043 13.355-21.12 23.296-5.12 9.899-7.68 21.333-7.68 34.176 0 12.288 2.432 23.424 7.339 33.493 4.907 9.941 11.776 17.835 20.565 23.509zM732.245 651.008c-7.936 0-15.872-0.384-23.936-1.067-54.571 80.171-145.493 128.853-243.797 128.853l-6.229-0.043c-81.323-1.707-176.256-38.144-238.080-129.28l36.267-22.912c52.779 76.501 132.437 107.989 202.667 109.44 94.592 2.005 182.357-49.109 227.371-132.352 149.333 29.653 252.16-88.917 252.16-203.776s-93.099-207.872-207.915-207.872c0 0-474.197 0.171-474.752 0.171v-0.171c-94.251 0-170.667 76.416-170.667 170.667s76.416 170.667 170.667 170.667v42.667c-117.803 0-213.333-95.531-213.333-213.333s95.531-213.333 213.333-213.333v0.171c0.555 0 474.752-0.171 474.752-0.171 138.155 0 250.581 112.427 250.581 250.581 0 120.747-95.232 251.093-249.088 251.093zM775.509 348.8l-16.896-8.789c-7.808-3.968-13.781-8.363-17.963-13.312-4.224-4.907-7.040-10.325-8.533-16.256-1.493-5.973-2.304-13.056-2.304-21.291v-10.965h87.040v22.827h-56.192c0.128 4.395 1.323 8.192 3.627 11.435s6.485 6.357 12.672 9.429l11.861 6.4c10.325 5.205 17.835 10.667 22.443 16.341 4.651 5.717 6.955 12.544 6.955 20.565 0 10.411-3.584 18.688-10.795 24.789-7.211 6.144-17.237 9.173-30.208 9.173-12.416 0-22.485-2.859-30.336-8.619-7.851-5.717-12.885-13.44-15.147-23.125l27.52-1.877c0.64 3.2 2.389 5.931 5.163 8.021 2.816 2.133 6.485 3.2 10.965 3.2 4.395 0 7.808-1.067 10.24-3.285 2.475-2.176 3.712-5.035 3.712-8.576 0-3.371-1.109-6.229-3.285-8.704-2.261-2.389-5.76-4.864-10.539-7.381zM546.987 334.891c16.853-9.899 35.968-14.891 57.301-14.891 21.376 0 40.448 4.992 57.173 14.891 16.725 9.941 29.824 23.381 39.168 40.32 9.387 16.896 14.037 35.712 14.037 56.32 0 20.437-4.651 39.168-14.037 56.149-9.344 17.067-22.443 30.507-39.296 40.448-16.811 9.941-35.84 14.891-57.045 14.891-21.376 0-40.491-4.949-57.301-14.891-16.811-9.899-29.909-23.339-39.168-40.277s-13.909-35.712-13.909-56.32 4.651-39.424 13.909-56.32c9.259-16.939 22.357-30.379 39.168-40.32zM553.515 465.408c5.12 9.899 12.117 17.621 20.992 23.125 8.875 5.461 18.816 8.192 29.781 8.192s20.864-2.731 29.653-8.192c8.789-5.504 15.787-13.227 20.864-23.125 5.12-9.941 7.68-21.248 7.68-33.92s-2.56-23.979-7.68-33.92c-5.12-9.899-12.075-17.621-20.864-23.125-8.747-5.504-18.688-8.235-29.653-8.235s-20.864 2.731-29.781 8.235c-8.875 5.504-15.915 13.227-20.992 23.125-5.12 9.941-7.68 21.248-7.68 33.92s2.56 23.979 7.68 33.92z" />
<glyph unicode="&#xe945;" glyph-name="cloud-moon" d="M940.715 536.704c-16.939-6.101-36.565-9.557-59.989-10.539-9.813-0.341-24.448 1.621-29.269 2.432-36.309 6.059-69.291 23.040-95.403 49.109-48.043 48.043-64.171 120.533-41.045 184.661l14.891 41.387-41.387-14.933c-30.421-10.965-57.472-28.16-80.469-51.115-6.144-6.187-11.861-12.587-16.939-19.072-2.731-3.413-5.291-6.869-7.808-10.411-2.816-4.053-5.504-8.192-8.064-12.459-21.461-35.627-31.957-75.904-31.104-116.736-38.955 25.045-84.395 38.997-132.395 38.997-85.504 0-164.523-44.501-211.413-119.083l34.987-22.016c39.253 62.421 105.173 99.712 176.384 99.712 80.469 0 152.832-47.104 188.885-122.965l8.021-16.811 17.579 6.187c16.128 5.675 32.64 8.576 49.109 8.576 84.309 0 152.917-71.296 152.917-158.933s-68.608-158.933-152.917-158.933l-465.621-0.171c-68.907 0-124.971 56.235-124.971 125.312s56.064 125.312 124.971 125.312c58.581 0 108.672-39.893 121.813-97.067l40.32 9.259c-17.451 76.075-84.139 129.152-162.091 129.152-91.733 0-166.357-74.752-166.357-166.699s74.624-166.699 166.357-166.699l465.664 0.213c107.136 0 194.261 89.856 194.261 200.277 0 32.768-7.808 63.659-21.419 91.008 19.883 8.576 38.4 19.968 55.339 34.475 0.597 0.512 14.336 13.056 24.064 23.979 5.675 6.443 10.965 13.312 15.659 20.309 4.523 6.741 8.747 13.867 12.459 21.163 4.309 8.448 8.192 17.408 11.477 26.581l14.805 41.301-41.301-14.763zM908.928 485.547c-3.712-5.504-7.851-10.88-12.331-15.957-8.064-9.088-20.437-20.352-20.395-20.352-15.104-12.885-32.085-22.827-50.432-29.952-35.669 44.971-89.813 73.771-150.443 73.771-15.232 0-30.507-1.92-45.525-5.675-11.477 20.565-25.301 39.040-41.045 55.253v0c-10.539 45.184-1.963 92.203 21.888 131.797 2.048 3.413 4.267 6.827 6.571 10.112 2.005 2.859 4.096 5.675 6.315 8.448 4.139 5.291 8.789 10.496 13.781 15.488 8.576 8.576 17.835 16.128 27.776 22.699-8.704-66.347 13.483-134.485 61.696-182.699 32.213-32.256 72.96-53.205 117.76-60.672 2.176-0.384 21.888-3.712 37.803-2.944 9.685 0.384 18.859 1.152 27.605 2.347-0.299-0.555-0.64-1.109-1.024-1.664z" />
<glyph unicode="&#xe946;" glyph-name="cloud-moon-rain" d="M940.032 620.032c-16.939-6.101-36.565-9.557-59.989-10.539-9.813-0.341-24.448 1.621-29.269 2.432-36.309 6.059-69.291 23.040-95.403 49.109-48.043 48.043-64.171 120.533-41.045 184.661l14.891 41.387-41.387-14.933c-30.421-10.965-57.472-28.16-80.469-51.115-6.144-6.187-11.861-12.587-16.939-19.072-2.731-3.413-5.291-6.869-7.808-10.411-2.816-4.053-5.504-8.235-8.064-12.459-21.461-35.627-31.957-75.947-31.104-116.736-38.955 25.045-84.395 38.997-132.395 38.997-85.504 0-164.523-44.501-211.413-119.083l34.987-22.016c39.253 62.421 105.173 99.712 176.384 99.712 80.469 0 152.832-47.104 188.885-122.965l8.021-16.811 17.579 6.187c16.128 5.675 32.64 8.576 49.109 8.576 84.309 0 152.917-71.296 152.917-158.933s-68.608-158.933-152.917-158.933l-465.621-0.213c-68.907 0-124.971 56.235-124.971 125.355s56.064 125.312 124.971 125.312c58.581 0 108.672-39.893 121.771-97.067l40.363 9.259c-17.451 76.032-84.139 129.152-162.091 129.152-91.733 0-166.357-74.752-166.357-166.656s74.624-166.699 166.357-166.699l465.664 0.213c107.136 0 194.261 89.856 194.261 200.277 0 32.768-7.808 63.659-21.419 91.008 19.883 8.576 38.4 19.968 55.339 34.475 0.597 0.512 14.336 13.056 24.064 23.979 5.675 6.443 10.965 13.312 15.659 20.309 4.523 6.741 8.747 13.867 12.459 21.163 4.309 8.448 8.192 17.408 11.477 26.581l14.805 41.344-41.301-14.848zM908.245 568.875c-3.712-5.504-7.851-10.88-12.331-15.957-8.064-9.088-20.437-20.352-20.395-20.352-15.104-12.885-32.085-22.827-50.432-29.952-35.669 44.971-89.813 73.771-150.443 73.771-15.232 0-30.507-1.92-45.525-5.675-11.477 20.565-25.301 39.040-41.045 55.253-10.539 45.184-1.963 92.203 21.888 131.797 2.048 3.413 4.267 6.827 6.571 10.112 2.005 2.859 4.096 5.675 6.315 8.448 4.139 5.291 8.789 10.496 13.781 15.488 8.576 8.576 17.835 16.128 27.776 22.699-8.704-66.347 13.483-134.485 61.696-182.699 32.213-32.256 72.96-53.205 117.76-60.672 2.176-0.384 21.888-3.712 37.803-2.944 9.685 0.384 18.859 1.195 27.605 2.347-0.299-0.555-0.64-1.109-1.024-1.664zM174.251 38.528h41.344v80.768h-41.344v-80.768zM368.213 58.539h41.344v80.768h-41.344v-80.768zM562.176 8.917h41.344v80.768h-41.344v-80.768zM736.469 49.28h41.344v80.768h-41.344v-80.768z" />
<glyph unicode="&#xe947;" glyph-name="cloud-sun" d="M889.344 576.512c-4.011 34.347-17.579 65.707-38.016 91.52l78.379 78.379-30.123 30.123-78.379-78.379c-25.771 20.395-57.131 33.963-91.435 37.973v108.117h-42.581v-108.075c-34.347-4.011-65.749-17.621-91.563-38.059l-78.421 78.421-30.123-30.123 78.421-78.421c-7.552-9.557-13.824-20.096-19.328-31.061-40.661 26.795-88.405 41.771-138.795 41.771-88.064 0-169.472-45.867-217.771-122.624l36.011-22.656c40.491 64.341 108.416 102.741 181.76 102.741 82.901 0 157.44-48.555 194.56-126.677l8.235-17.323 18.091 6.4c16.597 5.845 33.621 8.832 50.645 8.832 86.869 0 157.525-73.472 157.525-163.755s-70.656-163.755-157.525-163.755l-479.744-0.256c-70.997 0-128.768 57.899-128.768 129.109s57.771 129.109 128.768 129.109c60.373 0 111.957-41.131 125.483-99.968l41.472 9.515c-17.963 78.336-86.656 133.035-166.955 133.035-94.464 0-171.349-77.013-171.349-171.691s76.843-171.691 171.349-171.691l479.701 0.256c110.336 0 200.064 92.544 200.064 206.293 0 36.864-9.515 71.381-26.027 101.376 19.371 25.301 32.427 55.723 36.352 88.96h108.203v42.581h-108.117zM678.912 549.931c-15.744 0-31.445-1.963-46.933-5.845-13.995 25.131-31.531 47.275-51.627 66.048 21.376 49.749 70.613 84.821 128.128 84.821 76.971 0 139.605-62.635 139.605-139.605 0-26.965-7.979-51.925-21.291-73.259-36.608 41.557-89.259 67.84-147.883 67.84z" />
<glyph unicode="&#xe948;" glyph-name="cloud-sun-rain" d="M876.629 613.163c-3.883 33.237-17.024 63.616-36.779 88.619l75.861 75.861-29.141 29.184-75.861-75.861c-24.96 19.755-55.296 32.896-88.491 36.779v104.619h-41.259v-104.619c-33.237-3.883-63.659-17.067-88.619-36.821l-75.947 75.904-29.141-29.184 75.947-75.904c-7.296-9.259-13.355-19.456-18.731-30.080-39.381 25.941-85.589 40.448-134.4 40.448-85.248 0-164.053-44.373-210.816-118.699l34.859-21.931c39.168 62.293 104.96 99.456 175.915 99.456 80.213 0 152.405-46.976 188.373-122.624l7.979-16.768 17.493 6.187c16.043 5.675 32.512 8.533 49.024 8.533 84.096 0 152.491-71.125 152.491-158.507 0-87.424-68.395-158.507-152.491-158.507l-464.384-0.299c-68.736 0-124.672 56.064-124.672 125.013 0 68.907 55.893 124.971 124.672 124.971 58.453 0 108.373-39.808 121.472-96.768l40.149 9.216c-17.408 75.819-83.883 128.768-161.621 128.768-91.435 0-165.845-74.539-165.845-166.187s74.411-166.187 165.888-166.187l464.384 0.213c106.795 0 193.707 89.6 193.707 199.723 0 35.669-9.216 69.12-25.173 98.133 18.773 24.491 31.403 53.931 35.157 86.101h104.704v41.216h-104.704zM816.085 521.728c-35.456 40.235-86.443 65.707-143.189 65.707-15.232 0-30.464-1.92-45.44-5.675-13.568 24.32-30.507 45.781-49.963 63.957 20.693 48.171 68.352 82.091 124.032 82.091 74.539 0 135.168-60.629 135.168-135.168 0-26.069-7.765-50.219-20.608-70.912zM172.373 53.163h41.259v80.512h-41.259v-80.512zM365.824 73.173h41.216v80.512h-41.216v-80.512zM559.232 23.637h41.259v80.512h-41.259v-80.512zM733.013 63.915h41.259v80.512h-41.259v-80.512z" />
<glyph unicode="&#xe949;" glyph-name="clouds" d="M821.248 606.421c-11.605 0-23.168-1.323-34.56-3.968-37.333 64.683-103.723 104.149-177.152 104.149-70.059 0-134.827-36.395-173.781-98.304-1.749-3.2-3.669-6.528-5.504-9.771-26.88 13.056-56.491 20.48-87.509 20.48-70.059 0-134.827-36.395-173.227-97.323l34.944-22.016c30.72 48.853 82.432 78.037 138.24 78.037 30.379 0 59.179-8.747 84.139-24.235l6.528-4.523 0.213 0.043c23.851-16.512 43.819-39.381 57.216-67.541l7.979-16.768 17.536 6.187c12.459 4.437 25.301 6.656 38.144 6.656 65.493 0 118.784-55.339 118.784-123.307 0-68.011-53.291-123.307-118.784-123.307l-374.059-0.171c-53.12 0-96.384 43.221-96.384 96.384s43.221 96.341 96.384 96.341c45.184 0 83.797-30.677 93.909-74.624l40.277 9.259c-14.464 62.805-69.632 106.667-134.144 106.667-76.032-0.043-137.771-61.781-137.771-137.685s61.739-137.685 137.685-137.685l374.059 0.171c61.184 0 114.432 35.541 141.355 87.552l125.483 0.085c88.277 0 160.085 73.856 160.085 164.608s-71.808 164.608-160.085 164.608zM821.205 318.507l-110.677-0.043c2.517 11.52 3.925 23.467 3.925 35.755 0 90.752-71.808 164.608-160.085 164.608-11.605 0-23.168-1.323-34.56-3.968-14.251 24.704-32.768 45.611-54.272 62.165 1.707 3.029 3.584 6.4 5.717 10.24 30.763 48.853 82.475 78.037 138.283 78.037 63.061 0 119.808-36.864 148.053-96.256l7.979-16.768 17.536 6.187c12.459 4.437 25.301 6.656 38.144 6.656 65.493 0 118.784-55.339 118.784-123.307 0-68.011-53.291-123.307-118.827-123.307z" />
<glyph unicode="&#xe94a;" glyph-name="clouds-lightning" d="M821.248 683.051c-11.563 0-23.168-1.323-34.56-3.925-37.291 64.64-103.723 104.149-177.152 104.149-70.059 0-134.827-36.395-173.824-98.304-1.749-3.157-3.669-6.528-5.504-9.771-26.88 13.056-56.491 20.48-87.509 20.48-70.059 0-134.827-36.395-173.227-97.323l34.944-22.016c30.805 48.853 82.475 78.037 138.283 78.037 30.293 0 59.051-8.704 83.968-24.149l6.656-4.651 0.213 0.043c23.851-16.512 43.776-39.381 57.216-67.499l7.979-16.768 17.536 6.144c12.501 4.395 25.301 6.613 38.144 6.613 65.493 0 118.784-55.339 118.784-123.307s-53.291-123.307-118.784-123.307l-374.059-0.213c-53.12 0-96.341 43.221-96.341 96.384s43.221 96.384 96.341 96.384c45.184 0 83.797-30.677 93.909-74.667l40.277 9.259c-14.464 62.805-69.632 106.667-134.187 106.667-75.947 0.085-137.685-61.696-137.685-137.6s61.739-137.685 137.685-137.685l374.059 0.213c61.184 0 114.432 35.541 141.355 87.552l125.525 0.085c88.277 0 160.085 73.856 160.085 164.608-0.043 90.709-71.851 164.565-160.128 164.565zM821.205 395.136l-110.677-0.043c2.517 11.52 3.925 23.467 3.925 35.755 0 90.752-71.808 164.608-160.085 164.608-11.563 0-23.168-1.323-34.56-3.925-14.251 24.704-32.768 45.611-54.272 62.165 1.707 3.029 3.584 6.4 5.717 10.24 30.805 48.853 82.475 78.037 138.283 78.037 63.061 0 119.808-36.864 148.053-96.213l7.979-16.768 17.536 6.187c12.501 4.395 25.344 6.613 38.144 6.613 65.493 0 118.784-55.339 118.784-123.307s-53.291-123.349-118.827-123.349zM247.68 176.128l-39.637 11.605-27.179-92.715h43.691l-19.541-53.376 38.784-14.208 39.851 108.885h-47.659l11.691 39.808zM542.805 219.093l-39.637 11.605-27.179-92.715h43.691l-19.541-53.376 38.784-14.208 39.893 108.885h-47.701l11.691 39.808zM811.989 178.773l-39.637 11.605-27.179-92.715h43.733l-19.541-53.376 38.784-14.208 39.893 108.885h-47.701l11.648 39.808z" />
<glyph unicode="&#xe94b;" glyph-name="clouds-rain" d="M821.248 646.955c-11.605 0-23.168-1.323-34.56-3.968-37.333 64.683-103.723 104.149-177.152 104.149-70.059 0-134.827-36.395-173.781-98.304-1.749-3.2-3.669-6.528-5.504-9.771-26.88 13.056-56.491 20.48-87.509 20.48-70.059 0-134.827-36.395-173.227-97.323l34.944-22.016c30.72 48.853 82.432 78.037 138.24 78.037 30.379 0 59.179-8.747 84.139-24.235l6.528-4.523 0.213 0.043c23.851-16.512 43.819-39.381 57.216-67.541l7.979-16.768 17.536 6.187c12.459 4.437 25.301 6.656 38.144 6.656 65.493 0 118.784-55.339 118.784-123.307 0-68.011-53.291-123.307-118.784-123.307l-374.059-0.171c-53.12 0-96.384 43.221-96.384 96.384 0 53.12 43.221 96.341 96.384 96.341 45.184 0 83.797-30.677 93.909-74.624l40.277 9.259c-14.464 62.805-69.632 106.667-134.144 106.667-76.032-0.043-137.771-61.781-137.771-137.685s61.739-137.685 137.685-137.685l374.059 0.171c61.184 0 114.432 35.541 141.355 87.552l125.483 0.085c88.277 0 160.085 73.856 160.085 164.608s-71.808 164.608-160.085 164.608zM821.205 359.040l-110.677-0.043c2.517 11.52 3.925 23.467 3.925 35.755 0 90.752-71.808 164.608-160.085 164.608-11.605 0-23.168-1.323-34.56-3.968-14.251 24.704-32.768 45.611-54.272 62.165 1.707 3.029 3.584 6.4 5.717 10.24 30.763 48.853 82.475 78.037 138.283 78.037 63.061 0 119.808-36.864 148.053-96.213l7.979-16.768 17.536 6.187c12.459 4.437 25.301 6.656 38.144 6.656 65.493 0 118.784-55.339 118.784-123.307 0-68.053-53.291-123.349-118.827-123.349zM213.547 93.099h41.301v80.64h-41.301v-80.64zM407.253 113.152h41.301v80.64h-41.301v-80.64zM600.96 63.531h41.301v80.64h-41.301v-80.64zM774.997 103.851h41.301v80.64h-41.301v-80.64z" />
<glyph unicode="&#xe94c;" glyph-name="clouds-snow" d="M608.085 180.949c-15.445 0-28.032-12.544-28.032-28.032 0-15.445 12.544-28.032 28.032-28.032s28.032 12.544 28.032 28.032c0 15.488-12.587 28.032-28.032 28.032zM412.885 194.048c-15.445 0-28.032-12.544-28.032-28.032 0-15.445 12.544-28.032 28.032-28.032s28.032 12.544 28.032 28.032c0 15.445-12.587 28.032-28.032 28.032zM786.688 666.923c-66.304 122.539-255.659 159.019-356.48-3.925-130.219 56.96-222.379-15.915-260.779-76.843l34.944-22.016c71.083 114.133 236.544 105.429 294.315-34.944 109.397 44.544 174.507-42.539 174.507-110.507 0-68.011-53.291-123.307-118.784-123.307l-374.059-0.171c-53.12 0-96.384 43.221-96.384 96.384 0 120.875 171.691 127.701 190.293 21.717l40.277 9.259c-39.083 155.819-271.872 133.803-271.872-30.976 0-75.904 61.739-137.685 137.685-137.685l374.059 0.171c61.184 0 114.432 35.541 141.355 87.552l125.525 0.085c88.277 0 160.085 73.856 160.085 164.608-0.043 90.752-76.843 184.96-194.688 160.597zM821.248 382.976l-110.677-0.043c24.576 129.536-85.717 222.379-190.72 196.395-14.251 24.704-32.768 45.611-54.272 62.165 46.421 104.192 237.397 136.661 300.075-24.661 90.283 39.253 160.085-21.803 172.8-90.112 12.715-68.267-39.125-143.787-117.205-143.744zM849.451 222.464c-15.445 0-28.032-12.544-28.032-28.032 0-15.445 12.587-28.032 28.032-28.032s28.032 12.544 28.032 28.032-12.587 28.032-28.032 28.032zM711.765 267.008c-15.445 0-28.032-12.587-28.032-28.032s12.587-28.032 28.032-28.032 28.032 12.544 28.032 28.032c0 15.445-12.587 28.032-28.032 28.032zM247.381 226.517c-15.403 0-27.904-12.501-27.904-27.904s12.501-27.904 27.904-27.904c15.403 0 27.904 12.501 27.904 27.904s-12.501 27.904-27.904 27.904z" />
<glyph unicode="&#xe94d;" glyph-name="comfort" d="M816.896 173.525h-309.291l37.291 120.789-279.339 360.32 12.373 56.704-65.493 248.661h-159.957v-304.896l217.301-541.141 43.733 18.347-214.016 531.883v248.789h76.757l53.248-203.691-14.72-67.157 277.931-357.376-48.725-158.251h372.864c59.563-0.427 107.648-48.853 107.648-108.416v-35.072h-608.981l19.115-47.019h636.885v82.091c0 85.547-69.12 155.008-154.624 155.435z" />
<glyph unicode="&#xe94e;" glyph-name="configure" d="M1016.576 543.744l-44.843-6.613c-0.213-0.555 26.709-37.803 26.709-37.803s-27.008-51.328-81.621-82.261c0 0-37.419 26.624-37.973 26.411l-6.187-45.013c0 0-50.645-16.384-115.883-0.469 0 0-7.68 45.44-8.235 45.696l-36.096-27.392c0 0-48.939 27.435-74.837 70.144l32.896 21.376c10.795-16.597 24.619-31.403 40.448-43.392l33.024 25.045 41.557-17.109 5.973-40.917c7.723-0.981 38.357-0.853 46.037 0.213l5.675 40.96 41.344 17.408 33.28-24.789c12.16 9.387 23.125 20.437 32.427 32.683l-25.003 32.981 16.981 41.6 41.003 6.016c1.024 7.595 0.896 38.443-0.171 46.037l-41.003 5.675-17.365 41.344 24.747 33.28c-9.387 12.16-20.437 23.125-32.683 32.427l-33.024-25.003-41.557 17.024-5.973 41.003c-7.637 0.939-38.4 0.853-46.037-0.213l-5.675-41.045-41.472-17.365-33.152 24.747c-12.203-9.387-23.168-20.437-32.427-32.683l25.045-33.067-17.109-41.472-40.917-6.016c-1.024-7.637-0.043-47.36 2.517-59.349l-38.315-8.32c-6.869 27.648-6.955 81.621 2.432 102.4 0 0 45.397 7.68 45.611 8.192l-27.349 36.181c0 0 34.133 57.173 81.621 82.261 0 0 37.419-26.709 37.973-26.453l6.187 44.885c0 0 51.243 18.176 115.883 0.469l6.528-44.843c0.555-0.213 37.845 26.709 37.845 26.709s54.272-29.739 82.261-81.579l-27.093-36.395c0.213-0.555 45.568-7.808 45.568-7.808 16.939-58.709 0.427-115.797 0.427-115.797zM562.048 446.549l42.624 9.045c17.451-82.859-3.157-144.512-3.157-144.512l-66.176-9.429c-1.323-3.413-2.731-6.827-4.267-10.155l40.107-53.376c-48.725-79.061-112.768-112.768-112.768-112.768l-53.333 40.107c-3.413-1.493-6.784-2.944-10.24-4.267l-9.387-66.005c-86.784-22.784-159.445 0-159.445 0l-9.344 66.005c-3.456 1.323-6.869 2.731-10.24 4.267l-53.419-40.107c-77.483 44.757-112.725 112.768-112.725 112.768l40.064 53.376c-1.451 3.371-2.901 6.741-4.224 10.155l-66.005 9.429c-22.187 97.493 0.085 159.445 0.085 159.445l66.005 9.429c1.323 3.413 2.773 6.827 4.224 10.24l-40.064 53.291c0 0 42.325 72.875 112.768 112.768l53.376-40.064c3.371 1.451 6.784 2.901 10.24 4.224l9.387 66.176c0 0 73.173 22.613 159.445 0l9.387-66.176c3.456-1.365 6.827-2.773 10.24-4.267l53.248 40.064c0 0 67.883-37.248 104.576-100.011l-36.693-23.595c-17.451 27.136-40.192 51.157-66.304 70.229l-50.133-37.632c-17.408 11.435-54.4 22.656-54.4 22.656l-8.789 61.952c-27.392 4.224-54.528 4.224-81.835 0l-8.747-61.952c-24.576-6.315-54.4-22.699-54.4-22.699l-50.176 37.717c-22.059-16.085-41.728-35.797-57.813-57.856l37.632-50.048c-10.539-16.384-22.485-54.4-22.485-54.4l-62.037-8.875c-7.467-36.181 0-81.749 0-81.749l62.037-8.875c0 0 10.965-36.437 22.528-54.272l-37.675-50.133c16.128-22.059 35.797-41.728 57.856-57.856l50.133 37.632c0 0 32.256-17.237 54.4-22.528l8.789-62.080c27.051-4.267 54.699-4.267 81.792 0l8.832 62.080c0 0 31.744 9.088 54.443 22.485l50.048-37.632c22.059 16.128 41.728 35.797 57.856 57.856l-37.675 50.219c0 0 16.171 26.581 22.656 54.229l61.995 8.832c2.091 13.568 7.424 50.517-2.816 96.64z" />
<glyph unicode="&#xe94f;" glyph-name="configure-2" d="M980.096-19.072h-489.813c-10.667 1.92-20.523 7.083-28.16 14.805-11.52 11.904-17.835 27.904-17.493 44.459v499.627h486.144c29.269-4.949 50.347-30.805 49.365-60.459v-498.432zM934.315 584.107h-174.592l-105.515 172.373h-52.181l105.515-172.075h-307.371v-44.459c0-47.701 0-119.296 0-185.387h-288.725v-109.099h-66.987v259.968l165.248 269.611c9.643 15.957 26.88 25.771 45.483 25.941h371.712l-27.264 44.459h-344.405c-34.005-0.128-65.493-17.792-83.328-46.72l-106.539-173.995h-65.365v-44.459h38.101l-38.101-62.251v-317.184h155.904v109.099h244.267v-268.715c-1.28-52.523 36.907-97.749 88.917-105.216h534.912v542.891c0.597 53.504-38.101 105.216-89.685 105.216zM923.776 321.792l-46.379 6.656 28.16 37.504c0 0-31.189 55.893-87.296 87.595l-37.504-28.16-6.656 46.379c-58.667 17.408-122.88 0-122.88 0l-6.528-46.379-37.504 28.16c0 0-55.509-28.672-87.467-87.296l28.331-37.504-46.549-6.656c0 0-8.32-39.211-8.32-61.525h44.459c0.043 7.424 0.555 14.848 1.493 22.229l42.24 6.059 18.688 44.757-25.643 34.219c9.045 11.563 19.541 21.931 31.275 30.805l34.091-25.643c12.203 9.685 44.928 18.688 44.928 18.688l5.931 42.24c14.763 1.92 29.696 1.92 44.459 0l6.059-42.24 44.885-18.688 34.091 25.643c11.776-9.088 22.315-19.669 31.445-31.403l-25.643-34.091 18.517-44.928 42.368-6.059c0.597-7.381 0-37.077-0.896-44.459l-42.368-5.931-18.517-44.885 25.643-34.219c-9.131-11.733-19.669-22.272-31.403-31.445l-34.091 25.771-44.885-18.688-6.059-42.24c-14.763-1.92-29.696-1.92-44.459 0l-5.931 42.24-44.885 18.517-33.195-25.643c-11.733 9.131-22.272 19.669-31.403 31.445l8.747 11.691-33.365 29.653-29.653-39.893c35.541-61.952 86.4-87.893 86.4-87.893l37.504 28.288 6.229-46.080c0 0 54.528-18.944 122.88 0l6.528 46.379 37.632-28.16c58.027 32.427 87.296 87.296 87.296 87.296l-28.16 37.632 46.379 6.656c-0.043 0.128 20.651 58.197 0.981 123.605z" />
<glyph unicode="&#xe950;" glyph-name="connected-app" d="M509.952 94.037c-16.384-0.085-29.653-13.44-29.568-29.824 0.043-16.384 13.355-29.653 29.781-29.653 16.384 0.043 29.696 13.312 29.696 29.739-0.128 16.427-13.483 29.739-29.909 29.739zM746.752 767.787v-597.419h-469.376v597.419h469.376zM686.037-0.299h-408.661v128h469.376v-65.451c0.213-16.341-6.059-32.043-17.451-43.733s-26.965-18.347-43.307-18.56v-0.256zM325.461 895.829h464v42.667h-464c-24.491 1.579-48.469-7.424-65.835-24.747s-26.453-41.259-24.917-65.749v-890.667h451.328c57.472 0.469 103.723 47.36 103.424 104.832v748.288h-512.085v37.547c-1.707 13.184 2.816 26.411 12.245 35.797 9.429 9.344 22.656 13.824 35.84 12.032z" />
<glyph unicode="&#xe951;" glyph-name="connectivity" d="M198.272 74.411c7.040 0 13.397 4.267 16.085 10.795s1.152 14.037-3.84 18.987c-4.992 4.949-12.544 6.443-19.029 3.712s-10.709-9.131-10.667-16.213c0-4.608 1.835-9.045 5.12-12.288s7.723-5.035 12.331-4.992zM328.789 494.635v-333.141h-244.949v333.141h244.949zM940.373 242.091v-25.429c0-29.397-17.152-52.651-40.832-55.808h-529.92v81.664l570.752-0.427zM328.789 90.88c0.171-15.275-11.947-27.861-27.221-28.331h-217.728v58.539h244.949v-30.208zM249.045 815.403h732.288v40.832h-734.891c-49.067-5.76-85.589-48.085-84.096-97.451v-148.608h-58.539c-16.341 0.853-32.299-5.291-43.947-16.811-11.605-11.563-17.835-27.477-17.152-43.861v-528.171h258.56c37.803 0.469 68.181 31.317 68.053 69.12v29.397h182.229v-40.832h-143.147v-40.832h326.613v40.832h-142.635v40.832h309.589c44.16 5.632 77.696 42.581 78.933 87.083v526.848h-40.832l0.939-450.304h-571.52v251.989h-285.824v13.611c-0.811 5.547 1.067 11.179 5.077 15.104s9.643 5.717 15.189 4.779h265.131v40.832h-165.888v154.453c1.237 25.771 20.395 47.147 45.867 51.157zM571.563 166.144c17.493 0 31.701 14.208 31.701 31.701s-14.208 31.701-31.701 31.701c-17.493 0-31.701-14.208-31.701-31.701s14.208-31.701 31.701-31.701z" />
<glyph unicode="&#xe952;" glyph-name="contact" d="M938.667 788.309v-688.725c0-43.861-35.541-79.445-79.403-79.531h-162.304l37.547 146.944v22.187h-42.667v-14.208l-38.997-154.923h-271.019c-16.512 78.805-36.139 173.013-52.779 237.995-3.499 11.819-1.195 24.619 6.272 34.432 10.069 11.733 24.96 18.176 40.405 17.493h362.069v42.667h-362.069c-28.629 0.725-55.979-11.819-74.112-34.005-15.701-20.139-20.992-46.507-14.208-71.125 15.531-62.336 34.432-151.509 50.517-227.627h-252.587v775.253c0.085 43.861 35.669 79.445 79.531 79.531h816.171v42.667h-816.171c-67.456-0.085-122.112-54.741-122.197-122.197v-817.749h816.597c67.413 0.171 121.984 54.784 122.069 122.197v688.725h-42.667zM434.603 705.365h181.376v42.667h-181.376c-12.629 0.725-25.003-3.883-34.091-12.757-9.045-8.832-13.995-21.077-13.568-33.749v-259.371h189.781c13.824-0.085 27.093 5.333 36.907 15.061s15.36 22.912 15.445 36.736v155.648h-42.667v-155.648c-0.043-2.517-1.067-4.907-2.901-6.613s-4.267-2.603-6.741-2.517h-147.115v216.704c-0.043 2.987-0.043 3.84 4.949 3.84z" />
<glyph unicode="&#xe953;" glyph-name="contact-2" d="M513.877 697.899c15.872 0 28.757-12.885 28.757-28.757 0-15.915-12.885-28.757-28.757-28.757-15.915 0-28.757 12.885-28.757 28.757 0.299 15.659 13.099 28.203 28.757 28.203v0.555zM513.877 597.205c39.723 0 71.936 32.213 71.936 71.936s-32.213 71.936-71.936 71.936c-39.723 0-71.936-32.213-71.936-71.936s32.213-71.936 71.936-71.936zM513.579 552.619h-97.835v-302.123c0.555-52.053 42.624-94.080 94.677-94.549h21.589v43.179h-21.589c-28.459 0.384-51.371 23.467-51.499 51.925v258.987h54.656c28.8-0.085 52.139-23.424 52.224-52.224v-301.867h43.179v302.123c-0.555 52.309-43.093 94.464-95.403 94.549zM512 21.973c-235.349 0-426.155 190.805-426.155 426.155s190.805 426.197 426.155 426.197c235.349 0 426.155-190.805 426.155-426.155-0.213-235.264-190.891-425.941-426.155-426.197zM512 917.333c-189.824 0-360.96-114.347-433.621-289.749-72.619-175.403-32.469-377.259 101.803-511.488s336.171-174.336 511.531-101.632c175.36 72.704 289.707 243.883 289.621 433.707-0.299 259.029-210.261 468.907-469.333 469.163z" />
<glyph unicode="&#xe954;" glyph-name="control-checkmark" d="M715.051 703.317l-246.187-375.467-167.296 189.611-63.957-56.448 244.651-268.331 304.128 463.872z" />
<glyph unicode="&#xe955;" glyph-name="control-close" d="M738.901 725.333l50.432-50.432-226.944-226.901 226.944-226.901-50.432-50.432-226.944 226.944-226.859-226.944-50.432 50.432 226.901 226.901-226.901 226.901 50.432 50.432 226.901-226.901z" />
<glyph unicode="&#xe956;" glyph-name="control-exclamationmark" d="M549.333 373.333h-74.667l-17.493 373.333h113.749l-21.589-373.333zM512.341 286.72c18.688 0 34.688-6.656 48-19.968s19.968-29.568 19.968-48.725c0-19.157-6.656-35.371-19.968-48.725-13.312-13.312-29.312-19.968-48-19.968-19.157 0-35.413 6.656-48.725 19.968s-19.968 29.568-19.968 48.725c0 18.688 6.656 34.816 19.968 48.341 13.355 13.568 29.568 20.352 48.725 20.352z" />
<glyph unicode="&#xe957;" glyph-name="control-info-i" d="M467.669 490.795h85.632v-275.072h-85.632v275.072zM511.744 561.963c-14.080 0-26.112 4.992-36.139 15.019s-15.019 22.229-15.019 36.651c0 14.421 4.992 26.624 15.019 36.651s22.059 15.019 36.139 15.019c14.421 0 26.624-4.992 36.651-15.019s15.019-22.229 15.019-36.651c0-14.080-4.992-26.197-15.019-36.395-10.027-10.155-22.229-15.275-36.651-15.275z" />
<glyph unicode="&#xe958;" glyph-name="control-minus" d="M256 490.752h512v-85.333h-512v85.333z" />
<glyph unicode="&#xe959;" glyph-name="control-pause" d="M597.333 234.752h85.333v426.667h-85.333v-426.667zM341.333 234.752h85.333v426.667h-85.333v-426.667z" />
<glyph unicode="&#xe95a;" glyph-name="control-play" d="M384 234.752l341.333 213.248-341.333 213.419v-426.667z" />
<glyph unicode="&#xe95b;" glyph-name="control-plus" d="M768 490.752h-213.333v213.248h-85.333v-213.248h-213.333v-85.333h213.333v-213.419h85.333v213.419h213.333z" />
<glyph unicode="&#xe95c;" glyph-name="control-stop" d="M298.667 661.419h426.667v-426.667h-426.667v426.667z" />
<glyph unicode="&#xe95d;" glyph-name="cookie-settings" d="M234.197 742.741v0c0 11.782 9.551 21.333 21.333 21.333v0c11.782 0 21.333-9.551 21.333-21.333s-9.551-21.333-21.333-21.333c-11.782 0-21.333 9.551-21.333 21.333zM148.864 742.741v0c0 11.782 9.551 21.333 21.333 21.333v0c11.782 0 21.333-9.551 21.333-21.333s-9.551-21.333-21.333-21.333c-11.782 0-21.333 9.551-21.333 21.333zM85.333 149.333h468.608v-42.667h-511.275v624.128l0.003-0.144c-0.029 0.98-0.043 1.964-0.043 2.951 0 50.446 37.67 92.093 86.909 98.398h766.464v-42.667l-763.415-0.043c-25.824-4.182-45.727-26.031-46.91-52.864l-0.341-32.981 810.667 0.555v-181.76l0.881-0.294c-13.533 5.144-28.162 8.065-43.548 8.315v130.56h-768zM319.531 742.741v0c0 0 0 0 0 0 0 11.782 9.551 21.333 21.333 21.333 0.015 0 0.030 0 0.043 0v0c11.782 0 21.333-9.551 21.333-21.333s-9.551-21.333-21.333-21.333c-11.782 0-21.333 9.551-21.333 21.333zM169.984 363.008h339.328v-42.667h-339.072zM552.405 489.643h-382.421v42.667h382.677zM424.405 446.976v-42.667h-254.165v42.667zM727.040 277.035v120.021c-0.15 1.355-0.235 2.927-0.235 4.518 0 24.035 19.485 43.52 43.52 43.52 1.646 0 3.271-0.091 4.869-0.269l-0.197 0.018h122.411v-83.029h42.667v125.696h-165.248c-1.618 0.109-3.508 0.172-5.412 0.172-47.128 0-85.333-38.205-85.333-85.333 0-1.862 0.060-3.71 0.177-5.542l-0.013 0.25v-120.021h-87.339l-0.299-339.456h324.565c57.294 0.482 103.553 47.040 103.553 104.402 0 0.196-0.001 0.392-0.002 0.588v-0.030 234.667zM982.059 42.368c0.002-0.204 0.004-0.445 0.004-0.687 0-33.773-27.174-61.199-60.851-61.606h-281.638v254.293h342.485z" />
<glyph unicode="&#xe95e;" glyph-name="cross" d="M652.629 552.533l-36.096 36.096 286.037 286.037 36.096-36.096-286.037-286.037zM512 411.904l-390.571-390.571-36.096 36.096 390.571 390.571-390.571 390.571 36.096 36.096 817.237-817.237-36.096-36.096-390.571 390.571z" />
<glyph unicode="&#xe95f;" glyph-name="cross-circle" d="M700.075 667.605l-191.36-191.36-191.36 191.36-29.227-29.227 191.36-191.36-191.36-191.36 29.227-29.227 191.36 191.36 191.36-191.36 29.227 29.227-191.36 191.36 191.36 191.36-29.227 29.227zM512 917.333c-258.816 0-469.333-210.517-469.333-469.333s210.517-469.333 469.333-469.333c179.157 0 340.181 99.669 420.181 260.053l-36.992 18.475c-73.003-146.304-219.819-237.184-383.189-237.184-235.989 0-427.989 192-427.989 427.989s192 427.989 427.989 427.989 427.989-192 427.989-427.989c0-24.021-2.005-48.171-5.973-71.765l40.789-6.827c4.352 25.813 6.528 52.267 6.528 78.592 0 258.816-210.517 469.333-469.333 469.333z" />
<glyph unicode="&#xe960;" glyph-name="cross-square" d="M691.413 647.851l-170.112-170.112-170.112 170.112-29.099-29.099 170.112-170.112-170.112-170.112 29.099-29.099 170.112 170.112 170.112-170.112 29.099 29.099-170.112 170.112 170.112 170.112-29.099 29.099zM225.664 19.797c-78.464 0-142.336 63.829-142.336 142.336v714.069h714.069c78.464 0 142.336-63.872 142.336-142.336v-630.229h41.131v630.229c0 101.163-82.304 183.467-183.467 183.467h-755.2v-755.2c0-101.163 82.304-183.467 183.467-183.467h756.181v41.131h-756.181z" />
<glyph unicode="&#xe961;" glyph-name="cruise" d="M933.077 137.173h48.256l-266.197 621.653h-48.256l266.197-621.653zM42.667 137.173h48.256l266.368 621.653h-48.427l-266.197-621.653zM487.125 758.827h48.128v-88.704h-48.128v88.704zM487.125 226.005h48.128v-88.832h-48.128v88.832zM487.125 581.333h48.128v-88.832h-48.128v88.832zM487.125 403.669h48.128v-88.832h-48.128v88.832z" />
<glyph unicode="&#xe962;" glyph-name="cutlery" d="M448 63.659c0.341-17.152-4.309-37.504-42.667-42.24v511.872h-37.461c-27.477 3.627-48.427 36.181-47.787 67.499v316.416h-42.667v-315.947c-1.067-53.76 36.267-103.723 85.291-110.208v-512.299h42.667c42.667 0 86.272 36.907 85.291 85.291v0 469.248h-42.667v-469.632zM448 647.808c0-12.373-9.557-22.443-21.333-22.443s-21.333 10.069-21.333 22.443v269.397h-42.667v-269.397c0-37.163 28.715-67.371 64-67.371s64 30.208 64 67.371v269.397h-42.667v-269.397zM746.581 575.957v341.248h-106.624c-49.963-4.907-86.357-47.744-85.291-96.939l0.128-292.651c-0.128-36.949 27.776-70.741 63.829-77.696v-471.125h43.776l1.109 0.128c53.803 5.589 84.053 36.821 83.072 85.205v426.539h-42.624l-0.043-427.008c0.341-17.152-4.309-37.333-42.624-42.069v469.035h-21.76c-18.56-0.171-37.888 4.224-42.24 40.491v289.579c-0.597 27.179 20.309 50.603 47.744 53.803h58.88v-298.581h42.667z" />
</font>
</defs>
</svg>
