<?xml version="1.0" standalone="no"?>
<!DOCTYPE svg PUBLIC "-//W3C//DTD SVG 1.1//EN" "http://www.w3.org/Graphics/SVG/1.1/DTD/svg11.dtd" >
<svg xmlns="http://www.w3.org/2000/svg">
<metadata>Generated by IcoMoon</metadata>
<defs>
<font id="bronson-audi" horiz-adv-x="1024">
<font-face units-per-em="1024" ascent="960" descent="-64" />
<missing-glyph horiz-adv-x="1024" />
<glyph unicode="&#x20;" horiz-adv-x="512" d="" />
<glyph unicode="&#xe900;" glyph-name="NFC" d="M760.576 337.536l18.752-10.24c103.616 189.056 101.888 413.888-4.608 601.344l-18.56-10.496c102.784-180.992 104.384-397.952 4.416-580.544zM384 25.728l-170.688 170.688v-217.728h21.312v166.272l170.688-170.624v217.728h-21.312v-166.272zM255.36 483.712c-23.424 63.808-31.488 132.608-23.424 200.064l268.544-219.84 5.44 13.312c39.872 97.408 39.488 204.544-1.088 301.696l-19.712-8.192c36.544-87.424 38.592-183.36 6.272-271.808l-274.88 225.152-2.944-18.24c-12.608-76.928-5.056-156.224 21.824-229.376l20.032 7.36zM469.312-21.376h21.312v85.376h106.688v21.376h-106.688v85.376h128v21.376h-149.312v-213.376zM762.56 3.008h-0.32c-21.632 0-41.984 8.448-57.344 23.744s-23.68 35.648-23.68 57.344c0.064 44.608 36.416 80.96 81.152 80.96 13.504-0.576 25.984-3.136 37.504-9.344l10.176 18.752c-14.464 7.872-30.72 11.968-47.104 11.968-56.896 0.32-103.040-45.696-103.040-102.336-0.064-27.392 10.624-53.056 29.952-72.384s45.056-30.016 72.32-30.080h0.384c23.68 0 46.592 8.512 64.64 23.872l-13.888 16.256c-13.568-11.648-31.296-18.752-50.752-18.752zM647.424 829.248l-18.176-11.072c71.552-117.568 72.768-264.32 3.136-383.104l18.432-10.816c73.6 125.504 72.384 280.704-3.328 404.992z" />
<glyph unicode="&#xe901;" glyph-name="NFC--simple" d="M765.44 288.512c112.256 206.784 112.256 453.632 0 660.352l-37.504-20.352c105.28-193.984 105.28-425.664 0-619.648l37.504-20.352zM298.688 191.936v-155.776l-170.688 162.944v-263.232h42.688v163.456l170.688-162.944v255.488h-42.688zM233.472 476.416c-20.992 59.456-28.672 122.944-22.528 185.472l261.632-230.464 11.392 27.584c43.456 105.28 43.456 221.248 0 326.464l-39.424-16.32c35.264-85.376 38.784-178.56 10.432-265.472l-273.536 241.024-6.912-36.8c-15.552-82.048-9.024-166.976 18.752-245.76l40.256 14.208zM867.136 1.152c-16.832-14.592-36.736-22.592-54.72-22.592-51.328 3.2-86.464 39.872-83.456 87.296 2.752 44.8 38.656 80.704 82.176 83.392h0.256c14.080 0 28.032-3.584 40.384-10.176l20.352 37.504c-18.624 10.112-41.152 15.744-62.272 15.296-66.176-4.16-119.296-57.152-123.392-123.392-4.416-70.912 48.576-127.872 124.672-132.608h0.128c29.504 0 59.264 11.712 83.84 32.96l-27.904 32.256zM426.688-64h42.688v85.376h128v42.624h-128v85.376h128v42.624h-170.688v-256zM625.792 840.128l-36.416-22.208c73.792-121.088 75.072-272.256 3.264-394.496l36.736-21.632c79.872 135.872 78.464 303.808-3.584 438.336z" />
<glyph unicode="&#xe902;" glyph-name="NFC-inactive" d="M213.312-21.376h21.312v109.376l1.088 42.24-22.4-20.608v-131.008zM237.312 482.944c-23.424 63.872-31.488 132.672-23.424 200.064l268.48-219.84 5.44 13.312c39.872 97.408 39.488 204.544-1.152 301.696l-19.712-8.192c36.544-87.36 38.656-183.36 6.272-271.808l-274.88 225.152-2.944-18.24c-12.608-76.928-5.056-156.224 21.824-229.376l20.032 7.36zM963.136 914.24l-896-896 15.104-15.104 896 896-15.104 15.104zM681.6 664.384l19.584 16.512-4.16 19.904c-8.32 45.568-24.256 86.656-49.6 128.32l-18.176-11.072c26.88-44.224 42.048-85.824 49.152-135.104l3.328-18.56zM812.352 785.92l17.216 17.216-7.68 21.376h-0.064c-12.224 35.52-28.032 70.464-47.104 104.064l-18.56-10.496c21.12-37.184 38.080-76.16 50.496-115.712l5.632-16.448zM469.312-21.376h21.312v85.376h106.688v21.376h-106.688v85.376h128v21.376h-149.312v-213.376zM384 25.472l-126.592 124.672-14.976-15.232 162.88-160.384v217.472h-21.312v-166.528zM851.2 693.888l-3.008 28.032-3.2 21.76-19.584-20.096 0.896-5.312c20.992-129.92-2.368-265.152-65.728-380.8l18.752-10.24c61.12 111.552 86.272 240.704 71.872 366.656h0.064zM762.496 3.008h-0.256c-44.672 0.064-81.088 36.416-81.024 81.152 0.064 44.608 36.416 80.96 81.152 80.96 13.504-0.576 25.984-3.136 37.504-9.344l10.176 18.752c-14.464 7.872-30.72 11.968-47.104 11.968h-0.704c-56.448-0.064-102.336-45.952-102.4-102.336-0.064-27.328 10.56-53.056 29.952-72.384s45.056-30.016 72.32-30.080h0.32c23.744 0 46.72 8.512 64.704 23.872l-13.888 16.256c-14.080-12.096-32.128-18.752-50.816-18.752zM697.344 546.88l10.112 57.28-26.624-25.856-0.512-3.712c-6.528-49.536-22.656-96.512-47.936-139.584l18.432-10.816c22.464 38.272 38.080 79.488 46.592 122.688h0.064z" />
<glyph unicode="&#xe903;" glyph-name="NFC-inactive--simple" d="M805.824 560.128c-6.464-85.248-31.872-166.464-77.888-251.264l37.504-20.352c60.992 112.256 87.872 218.944 84.544 335.616l-2.56 57.728-40.896-52.096-0.576-69.632zM149.312 470.976l-13.888 182.336c33.152-29.248 93.888-82.688 205.12-180.736l46.656-41.152 11.392 27.584c3.968 9.024 8.384 21.12 12.352 33.472l2.752 9.344c17.024 58.176 17.28 117.952 17.28 120.448 0 56.32-10.88 111.232-32.384 163.2l-39.424-16.32c19.328-46.848 29.12-96.256 29.12-146.944 0-0.512-0.32-56.32-15.552-108.416l-1.728-5.76c-1.152-3.968-1.664-5.44-2.112-6.848l-0.192 3.328s-241.856 213.056-244.48 215.36l-39.488 34.944 21.952-287.168 42.56 3.264zM620.8 753.6l0.256-0.704c2.56-8.064 5.184-17.664 8.576-30.528l10.24-31.296 36.992 31.296-15.744 45.248c-7.552 23.424-14.848 36.224-32.384 67.328l-2.56 4.544-37.184-20.928 2.56-4.544c16.704-29.696 22.912-40.576 29.248-60.352zM767.296 843.456l11.264-30.464 35.392 32.256-16.64 40.32c-7.68 18.944-15.616 33.408-27.008 54.464l-4.8 8.768-37.504-20.352 4.8-8.832c15.744-29.056 23.744-43.584 34.496-76.224zM960.896 932.416l-917.376-922.688 30.208-30.080 917.376 922.688-30.272 30.080zM812.416-21.376c-51.328 3.2-86.464 39.872-83.456 87.296 2.752 44.8 38.656 80.704 82.176 83.392h0.256c14.080 0 28.032-3.584 40.384-10.176l20.352 37.504c-18.624 10.112-41.152 15.744-62.272 15.296-66.176-4.16-119.296-57.152-123.392-123.392-4.416-70.912 48.576-127.872 124.672-132.608h0.128c29.504 0 59.264 11.712 83.84 32.96l-27.904 32.256c-16.832-14.592-36.736-22.592-54.72-22.592zM128-64l42.688-0.768 1.92 81.28-44.608-41.408v-39.104zM641.92 480l-6.080-23.68c-5.504-15.936-14.592-34.24-29.056-50.304l31.68-28.608c26.496 29.44 38.656 63.616 44.224 87.104l15.296 67.264-55.872-51.776zM426.688-64h42.688v85.376h128v42.624h-128v85.376h128v42.624h-170.688v-256zM298.688 158.016v-124.032l-49.024 45.632-29.056-31.296 120.768-112.256v221.888h-42.688z" />
<glyph unicode="&#xe904;" glyph-name="adblue" d="M819.584 878.464c-7.744 11.648-19.392 19.776-32.896 22.848-13.824 3.2-27.84 0.64-39.232-6.912l-474.176-293.632 53.056-84.928-95.808-53.248 106.944-178.304 95.936 53.248 16.128-27.392c7.68-12.8 19.456-21.696 33.216-25.152 3.776-0.96 8.128-1.536 12.544-1.536 0 0 0.064 0 0.064 0 9.856 0 19.648 2.752 28.736 8.192l482.88 302.336-187.392 284.352zM512.896 309.952c-7.872-4.736-16.704-6.272-25.024-4.16-8.192 2.048-15.36 7.488-20.096 15.296l-26.624 45.248-96.064-53.376-85.056 141.696 86.464 48c7.36 3.776 51.904 27.712 71.168 57.6 12.608-20.8 34.56-48.32 62.144-48.32 33.536 0 58.304 16 68.928 42.688 12.736-19.776 33.152-42.752 59.072-42.752 34.304 0 58.88 15.808 69.248 42.944 12.992-19.84 33.536-42.944 58.752-42.944 33.92 0 58.752 16.32 69.248 43.456 9.28-13.888 22.656-29.44 39.104-38.016l-331.456-207.552zM809.728 590.976l-20.416 46.784v-51.072c0-33.408-19.968-53.312-53.376-53.312-23.616 0-47.68 42.688-54.272 57.6l-20.416 46.528v-50.816c0-46.4-33.408-53.312-53.376-53.312-24.704 0-47.488 41.472-54.208 57.408l-20.544 49.024v-53.12c0-33.408-19.968-53.312-53.312-53.312-23.616 0-47.68 42.688-54.272 57.6l-20.416 46.528v-50.816c0-19.456-34.048-45.44-60.288-60.416l-42.304 67.712 456.256 282.56c6.72 4.48 14.848 5.888 22.848 4.096 8.128-1.92 15.232-6.848 19.84-13.888l175.296-266.048-108.8-68.096c-27.2 0.512-51.392 42.24-58.496 58.432zM42.624-32v-10.624h128.512l-0.576 11.2c-0.128 2.176-9.408 222.592 83.84 377.984l16 26.752-29.056-11.328c-8.128-3.136-198.848-80.896-198.848-393.92zM149.056-21.376h-84.928c2.24 149.44 51.264 239.744 92.544 289.472 22.080 26.624 44.416 44.8 61.568 56.384-67.84-137.088-69.952-301.568-69.248-345.856z" />
<glyph unicode="&#xe905;" glyph-name="adblue--simple" d="M841.216 872c-15.296 22.976-40.128 39.68-68.096 45.824-28.416 6.208-57.92 1.024-80.704-14.144l-467.264-300.8 64.192-85.632-127.552-85.056 130.88-183.296 107.584 64.512 4.224-5.248c32-48.064 95.616-60.032 144.64-27.328l473.92 310.272-181.952 280.832zM525.76 316.416c-29.248-19.584-66.88-12.736-86.72 16.896l-28.736 35.84-105.728-63.488-82.432 115.392 104.32 69.568h36.224c36.608 0 96.32 15.68 128.064 66.88 5.12-9.024 11.52-17.792 19.392-25.984 26.304-27.136 62.784-40.896 108.544-40.896 36.032 0 94.272 15.168 126.336 64.256 4.672-8.448 10.56-16.704 17.728-24.384 12.352-13.248 27.2-23.168 44.48-29.824l-281.408-184.32zM794.112 559.488c-23.296 24.64-25.984 60.928-26.176 74.176 0.064 2.112 0.128 4.224 0.128 6.336l-42.624 1.408c-0.064-0.512-0.128-3.136-0.128-7.424-3.584-97.024-95.872-100.608-106.56-100.672-33.536 0-59.712 9.344-77.632 27.712-27.008 27.712-28.928 68.992-29.056 76.928v2.048l-42.688 0.704c0-0.256 0-1.216 0-2.752-1.216-100.928-95.872-104.512-106.688-104.64h-32l-43.84 58.432 429.056 276.224c13.632 9.088 30.528 12.032 48.128 8.128 17.28-3.84 32.512-13.952 41.536-27.584l158.72-244.992-106.304-69.568c-27.392 1.472-48.96 9.792-63.872 25.536zM0-64h42.624c0 240.256 154.112 340.416 160.64 344.576l-22.656 36.16c-7.36-4.608-180.736-115.968-180.736-380.736z" />
<glyph unicode="&#xe906;" glyph-name="adblue-alert" d="M42.624-32v-10.624h128.512l-0.576 11.2c-0.128 2.176-9.408 222.592 83.84 377.984l16 26.752-29.056-11.328c-8.128-3.136-198.848-80.896-198.848-393.92zM149.056-21.376h-84.928c2.24 149.44 51.264 239.744 92.544 289.472 22.080 26.624 44.416 44.8 61.568 56.384-67.84-137.088-69.952-301.568-69.248-345.856zM559.488 339.584l-46.592-30.464c-7.744-4.672-16.512-6.016-24.832-3.776s-15.488 7.872-20.288 15.808l-26.624 45.248-96.064-53.376-85.056 141.696 96.192 53.44-0.128 0.128c15.872 9.536 45.824 29.504 61.056 52.8 12.096-21.248 33.472-49.088 62.72-49.088 33.984 0 58.112 14.976 68.608 41.472 12.096-19.712 31.744-41.472 59.392-41.472 48.128 0 74.624 26.56 74.624 74.688h-21.376c0-36.416-16.896-53.312-53.376-53.312-28.224 0-48.448 41.728-53.888 57.856l-20.8 61.632v-65.024c0-35.584-18.432-54.464-53.312-54.464-26.176 0-47.872 42.432-54.016 58.816l-20.672 54.912v-58.688c0-19.52-34.112-46.336-60.416-62.080l-42.24 67.584 456.256 282.56c6.72 4.48 14.848 5.888 22.848 4.096 8.128-1.92 15.232-6.848 19.84-13.888l175.424-266.176-140.224-90.176 11.584-17.92 158.4 101.824-187.328 284.224c-7.744 11.648-19.392 19.776-32.896 22.848-13.824 3.2-27.84 0.64-39.232-6.912l-474.176-293.632 53.056-84.928-95.808-53.248 106.944-178.304 95.872 53.248 16.128-27.392c7.68-12.8 19.392-21.824 33.024-25.536 4.032-1.152 8.704-1.792 13.44-1.792 9.664 0 19.264 2.752 28.224 8.128l46.912 30.72-11.648 17.792zM746.624 298.624h21.376v128h-21.376v-128zM525.888 149.376h462.912l-231.488 416.64-231.488-416.64zM562.112 170.624l195.2 351.36 195.2-351.36h-390.464zM746.624 213.376h21.376v42.624h-21.376v-42.624z" />
<glyph unicode="&#xe907;" glyph-name="adblue-alert--simple" d="M549.44 280.896l-23.68 35.52c-29.248-19.584-66.88-12.736-86.72 16.896l-28.736 35.84-105.728-63.488-82.432 115.392 104.32 69.568h36.224c36.608 0 96.32 15.68 128.064 66.88 5.12-8.96 11.52-17.792 19.392-25.92 26.304-27.2 62.784-40.896 108.48-40.896v42.688c-33.536 0-59.712 9.344-77.632 27.712-27.008 27.712-28.992 68.992-29.056 76.928v2.048l-42.688 0.704c0-0.32 0-1.216 0-2.752-1.216-100.928-95.872-104.512-106.688-104.64h-32l-43.776 58.432 441.728 282.24c28.224 18.88 70.272 9.664 89.28-18.624l147.968-252.032-103.616-73.92 24.832-34.752 135.296 96.704-168.448 286.656c-32.704 49.088-100.992 63.488-148.672 31.744l-480.128-306.752 64.256-85.632-127.552-85.056 130.944-183.296 107.584 64.512 4.224-5.248c32.064-48.064 95.68-60.032 144.832-27.264zM0-64h42.624c0 240.256 154.112 340.416 160.64 344.576l-22.656 36.16c-7.36-4.608-180.736-115.968-180.736-380.736zM725.376 106.624h42.624v85.376h-42.624v-85.376zM725.376 362.624v-128h42.624v128h-42.624zM746.624 604.352l-276.928-583.040h553.92l-276.992 583.040zM746.624 504.896l209.472-440.96h-418.944l209.472 440.96z" />
<glyph unicode="&#xe908;" glyph-name="administrator" d="M313.728 0h-117.632l-17.088 34.112 66.304 66.304v12.48l-68.416 68.416h-12.544l-66.304-66.304-34.112 17.088v117.632l91.584 91.584h128l335.040 335.040v128.064l91.584 91.584h117.632l17.088-34.112-66.304-66.304v-12.544l68.416-68.416h12.48l66.304 66.304 34.112-17.088v-117.696l-91.584-91.584h-128l-335.104-335.040v-128.064zM209.216 21.376h95.616l79.104 79.104v128.064l347.584 347.584h128l79.104 79.104v95.616l-8.576 4.288-61.696-61.696h-30.208l-80.896 80.896v30.144l61.696 61.696-4.224 8.576h-95.68l-79.104-79.104v-128.064l-347.584-347.584h-128l-79.104-79.104v-95.68l8.576-4.224 61.696 61.696h30.144l80.896-80.896v-30.208l-61.696-61.696z" />
<glyph unicode="&#xe909;" glyph-name="administrator--simple" d="M307.456-64h-145.664l-42.688 42.624 76.608 76.608 12.928 25.792-63.616 63.616-25.792-12.928-76.672-76.608-42.624 42.624v145.664l119.168 119.168h149.312l328.832 328.832v149.312l119.168 119.168h145.664l42.752-42.816-86.272-84.672-5.056-15.936 66.944-66.944 15.872 5.056 84.736 86.208 42.816-42.816v-145.664l-119.168-119.168h-149.312l-328.832-328.832v-149.312zM179.456-21.376h110.336l94.144 94.208v149.312l353.856 353.856h149.376l94.208 94.144v110.080l-61.824-62.976-50.752-16.256-103.68 103.744 16.256 50.752 62.912 61.824h-110.080l-94.144-94.208v-149.312l-353.856-353.856h-149.312l-94.208-94.208v-110.336l54.464 52.864 56.448 28.224 107.072-107.136-32.192-61.888z" />
<glyph unicode="&#xe90a;" glyph-name="adress-book" d="M789.376-21.376h-704v938.624h704v-938.624zM106.688 0h661.376v896h-661.376v-896zM863.68-21.376h-85.056v21.376h85.056c0 0 0 0 0.064 0 17.792 0 32.256 14.4 32.32 32.192v234.304c-0.064 17.792-14.464 32.192-32.32 32.192 0 0-0.064 0-0.064 0h-85.056v21.376h85.056c0 0 0 0 0 0 29.568 0 53.568-23.936 53.632-53.504v-234.304c-0.064-29.568-24.064-53.504-53.632-53.504 0 0 0 0 0 0zM863.68 298.624h-85.056v21.376h85.056c0.064 0 0.064 0 0.128 0 17.728 0 32.128 14.272 32.192 32v213.568c-0.192 17.6-14.464 31.808-32.128 31.808-0.128 0-0.128 0-0.256 0h-85.056v21.312h85.056c0.064 0 0.128 0 0.256 0 29.44 0 53.248-23.744 53.44-53.12v-213.568c-0.128-29.44-24.064-53.376-53.568-53.376-0.064 0-0.064 0-0.128 0zM863.68 597.312h-85.056v21.312h85.056c0.064 0 0.064 0 0.128 0 17.728 0 32.128 14.272 32.192 32v213.568c-0.192 17.6-14.464 31.744-32.128 31.744-0.128 0-0.128 0-0.256 0h-85.056v21.376h85.056c0.064 0 0.128 0 0.256 0 29.44 0 53.248-23.744 53.44-53.12v-213.568c-0.128-29.44-24.064-53.312-53.568-53.312-0.064 0-0.064 0-0.128 0zM618.624 192h-384v202.624c0.064 41.216 33.408 74.56 74.56 74.688h234.752c41.152-0.064 74.56-33.472 74.56-74.688v-202.624zM256 213.376h341.376v181.376c0 29.44-23.872 53.248-53.248 53.312h-234.752c-29.44-0.064-53.248-23.936-53.248-53.312v-181.376zM458.688 512h-64c-41.216 0.064-74.624 33.408-74.688 74.688v64c0.064 41.216 33.408 74.624 74.688 74.688h62.656c41.92-0.064 75.904-34.048 75.968-75.968v-62.72c-0.064-41.216-33.408-74.624-74.688-74.688zM394.688 704c-29.44 0-53.312-23.872-53.312-53.312v-64c0-29.44 23.872-53.312 53.312-53.312h64c29.44 0 53.312 23.872 53.312 53.312v62.656c0 30.144-24.512 54.592-54.656 54.656h-62.656z" />
<glyph unicode="&#xe90b;" glyph-name="adress-book--simple" d="M810.624-64h-768v1024h768v-1024zM85.312-21.376h682.624v938.624h-682.624v-938.624zM874.624-64h-85.376v42.624h85.376c11.776 0.064 21.376 9.6 21.376 21.376v255.872c0 11.776-9.536 21.376-21.376 21.44h-85.376v42.624h85.376c35.392-0.064 63.936-28.672 64-64.064v-255.872c-0.064-35.328-28.672-63.936-64-64zM874.624 277.376h-106.624v42.624h106.624c11.776 0.064 21.376 9.6 21.376 21.44v255.872c0 11.776-9.536 21.312-21.376 21.44h-106.624v42.688h106.624c35.392-0.064 63.936-28.736 64-64.064v-255.872c-0.064-35.392-28.608-64-64-64.064zM874.624 618.688h-85.376v42.688h85.376c11.776 0 21.312 9.536 21.376 21.312v213.312c-0.064 11.776-9.536 21.312-21.376 21.376h-85.376v42.624h85.376c35.328-0.064 63.936-28.672 64-64v-213.312c-0.064-35.328-28.672-64-64-64zM640 192h-426.688v193.152c0.448 34.816 28.8 62.848 63.68 62.848 0.192 0 0.448 0 0.704 0h297.92c0.192 0 0.448 0 0.64 0 34.88 0 63.232-28.032 63.68-62.848v-193.152zM256 234.624h341.376v150.464c-0.448 11.264-9.664 20.224-20.992 20.224-0.256 0-0.512 0-0.704 0h-297.92c-0.192 0-0.448 0-0.704 0-11.328 0-20.544-8.96-20.992-20.224v-150.464zM448 490.688h-42.688c-58.88 0.064-106.56 47.808-106.688 106.688v42.688c0.064 58.88 47.808 106.56 106.688 106.688h42.688c58.88-0.064 106.624-47.808 106.688-106.688v-42.688c-0.064-58.88-47.808-106.56-106.688-106.688zM405.312 704c-35.328 0-64-28.672-64-64v-42.688c0-35.328 28.672-64 64-64h42.688c35.328 0 64 28.672 64 64v42.688c0 35.328-28.672 64-64 64h-42.688z" />
<glyph unicode="&#xe90c;" glyph-name="air-filter" d="M309.333 661.333v-490.667h21.333v490.667h-21.333zM373.333 661.333v-490.667h21.333v490.667h-21.333zM266.667 661.333h-21.333v-490.667h21.333v490.667zM757.333 789.333h-21.333v42.667c0 12.8-8.533 21.333-21.333 21.333h-405.333c-12.8 0-21.333-8.533-21.333-21.333v-42.667h-21.333c-12.8 0-21.333-8.533-21.333-21.333v-85.333h533.333v85.333c0 12.8-8.533 21.333-21.333 21.333zM309.333 832h405.333v-42.667h-405.333v42.667zM757.333 704h-490.667v64h490.667v-64zM245.333 64c0-12.8 8.533-21.333 21.333-21.333h490.667c12.8 0 21.333 8.533 21.333 21.333v85.333h-533.333v-85.333zM266.667 128h490.667v-64h-490.667v64zM437.333 661.333v-490.667h21.333v490.667h-21.333zM693.333 661.333v-490.667h21.333v490.667h-21.333zM629.333 661.333v-490.667h21.333v490.667h-21.333zM757.333 170.667h21.333v490.667h-21.333v-490.667zM565.333 661.333v-490.667h21.333v490.667h-21.333zM501.333 661.333v-490.667h21.333v490.667h-21.333z" />
<glyph unicode="&#xe90d;" glyph-name="announcements" d="M505.6 42.624h-182.784l-106.688 341.376h-152.128v320h448v-320h-123.712zM338.496 64h137.216l-117.312 341.376h132.288v277.312h-405.312v-277.312h146.496zM874.624 256c0 0 0 0 0 0-1.984 0-3.84 0.512-5.44 1.472-2.112 1.28-217.472 126.528-367.872 126.528v21.376c148.352 0 348.352-112 375.808-127.744 30.272 4.864 61.44 97.92 61.44 266.432s-31.232 261.568-61.44 266.432c-27.392-15.872-226.688-127.808-375.808-127.808v21.312c151.296 0 365.76 125.248 367.872 126.528 1.536 0.896 3.392 1.472 5.44 1.472 62.912 0 85.312-148.736 85.312-288s-22.464-288-85.376-288z" />
<glyph unicode="&#xe90e;" glyph-name="announcements--simple" d="M520.256-21.376h-215.616l-128 384h-176.64v384h512v-384h-119.744zM335.36 21.376h125.696l-128 384h136.32v298.688h-426.688v-298.688h164.736zM917.376 234.624c0 0 0 0 0 0-3.456 0-6.656 0.832-9.536 2.304-2.432 1.216-256.128 125.696-417.088 125.696v42.624c158.848 0 389.76-107.84 430.272-127.424 21.888 7.296 60.416 78.656 60.416 276.736s-38.464 269.44-60.416 276.736c-40.512-19.52-271.424-127.36-430.272-127.36v42.688c160.96 0 414.656 124.544 417.216 125.824 2.752 1.408 6.016 2.176 9.472 2.176 0 0 0 0 0 0 67.776 0 106.624-116.608 106.624-320s-38.848-320-106.624-320z" />
<glyph unicode="&#xe90f;" glyph-name="anti-theft-alarm-system" d="M778.624 192h-38.208l-83.392 416v2.176c0 16.512-13.44 29.824-29.824 29.824h-215.488c-17.344 0-27.712-16.256-27.52-29.952l-81.536-418.048h-36.032c-18.88 0-32-13.184-32-32v-85.376c0-18.56 13.504-32 32-32h512c18.56 0 32 13.44 32 32v85.376c0 18.816-13.184 32-32 32zM405.312 608c0 4.48 2.24 10.688 6.4 10.688h215.488c4.8 0 8.512-3.776 8.512-8.512l83.008-418.112h-394.368l80.896 416zM789.376 74.624c0-6.848-3.776-10.624-10.624-10.624h-512c-6.848 0-10.688 3.776-10.688 10.624v85.376c0 6.848 3.776 10.624 10.688 10.624h512c6.848 0 10.624-3.776 10.624-10.624v-85.376zM533.376 917.376h-21.376v-213.312h21.376v213.312zM348.864 668.864l-149.312 149.312-15.104-15.104 149.312-149.312 15.104 15.104zM884.224 803.072l-14.912 15.168-151.488-149.312 14.912-15.168 151.488 149.312zM298.688 448h-213.312v-21.312h213.312v21.312zM746.624 448v-21.312h213.376v21.312h-213.376z" />
<glyph unicode="&#xe910;" glyph-name="anti-theft-alarm-system--simple" d="M512 960h-42.688v-256h42.688v256zM919.744 812.8l-30.464 29.824-170.624-174.912 30.464-29.76 170.688 174.912zM309.632 667.712l-170.688 174.912-30.528-29.824 170.624-174.912 30.528 29.824zM810.624 106.624h-25.28l-98.56 480.32c-1.536 31.68-32.32 31.68-42.624 31.68h-264.512c-10.304 0-41.152 0-42.56-31.68l-98.56-480.32h-20.992c-25.92 0-46.912-19.136-46.912-42.624v-85.376c0-23.552 21.056-42.624 46.976-42.624h593.088c25.92 0 46.912 19.136 46.912 42.624v85.376c0 23.552-21.056 42.624-46.912 42.624zM378.432 576h267.136l96.32-469.376h-459.712l96.32 469.312zM810.624-21.376h-593.088c-1.6 0-2.944 0.448-3.712 0.448-0.384 0-0.576-0.128-0.576-0.448l-0.512 83.712c0.448 0.512 2.432 1.536 4.8 1.536h593.088c2.24 0.064 4.224-1.088 4.224-0.064l0.512-83.712c-0.448-0.448-2.368-1.536-4.736-1.536zM810.624 448v-42.624h213.376v42.688h-213.376zM213.312 448h-213.312v-42.624h213.312v42.688z" />
<glyph unicode="&#xe911;" glyph-name="anti-theft-alarm-system-alert" d="M988.8 490.688l-231.488 416.64-231.488-416.64h462.912zM952.512 512h-390.464l195.2 351.36 195.2-351.36zM768 554.688v42.688h-21.376v-42.688h21.376zM768 768h-21.376v-128h21.376v128zM778.624 192h-35.648l-39.104 247.040-21.056-3.328 38.592-243.712h-390.656l78.848 416c0 4.864 1.152 10.688 6.4 10.688h138.688v21.312h-138.688c-16.576 0-27.712-12.864-27.584-30.016l-79.424-418.048h-42.368c-18.88 0-32-13.184-32-32v-85.312c0-18.56 13.504-32 32-32h512c18.56 0 32 13.44 32 32v85.376c0 18.816-13.184 32-32 32zM789.376 74.624c0-6.848-3.776-10.624-10.624-10.624h-512c-6.848 0-10.688 3.776-10.688 10.624v85.376c0 6.848 3.776 10.624 10.688 10.624h512c6.848 0 10.624-3.776 10.624-10.624v-85.376zM298.688 469.312h-213.312v-21.312h213.312v21.312zM348.864 668.864l-149.312 149.312-15.104-15.104 149.312-149.312 15.104 15.104zM533.376 917.376h-21.376v-213.312h21.376v213.312z" />
<glyph unicode="&#xe912;" glyph-name="anti-theft-alarm-system-alert--simple" d="M807.68 106.624h-42.944l-39.68 238.144-42.112-7.040 38.528-231.168h-439.68l89.664 469.248c2.432 0.128 5.312 0.128 7.424 0.128h90.432v42.688h-90.432c-12.032 0-48.64 0-48.256-30.976l-92.288-481.024h-22.080c-25.152 0-45.632-20.416-45.632-45.632v-79.424c0-25.152 20.48-45.632 45.632-45.632h591.36c25.152 0 45.632 20.48 45.632 45.632v79.424c0 25.152-20.544 45.632-45.632 45.632zM807.68-21.376l-594.368 3.008v79.424c0 1.6 1.344 2.944 2.944 2.944l594.368-2.944-3.008-82.368zM768 490.688v85.312h-42.624v-85.312h42.624zM768 746.688h-42.624v-128h42.624v128zM309.504 669.568l-171.52 171.968-30.208-30.080 171.52-171.968 30.208 30.144zM213.312 448h-213.312v-42.624h213.312v42.688zM512 960h-42.688v-256h42.688v256zM1024.384 405.376l-279.552 560.064-275.648-560.064h555.2zM745.088 869.312l210.304-421.248h-417.6l207.36 421.248z" />
<glyph unicode="&#xe913;" glyph-name="apps" d="M885.376 0h-618.56c-41.216 0.064-74.688 33.408-74.688 74.624v64.512h21.312v-64.512c0.064-29.44 23.936-53.248 53.376-53.312h618.56c29.44 0 53.312 23.872 53.376 53.312v618.752c-0.064 29.44-23.936 53.312-53.376 53.312h-64.512v21.312h64.512c41.216-0.064 74.624-33.408 74.752-74.624v-618.752c-0.064-41.216-33.472-74.624-74.752-74.688zM757.376 128h-618.624c-41.216 0.064-74.624 33.472-74.688 74.624v618.688c0.064 41.216 33.408 74.624 74.688 74.688h618.688c41.216-0.064 74.624-33.408 74.688-74.688v-618.688c-0.064-41.216-33.472-74.624-74.624-74.624zM138.688 874.688c-29.44 0-53.312-23.872-53.312-53.312v-618.624c0-29.44 23.872-53.312 53.312-53.376h618.624c29.44 0.064 53.312 23.872 53.376 53.376v618.624c-0.064 29.44-23.872 53.312-53.376 53.312h-618.624zM237.504 549.056c0 0 0 0 0 0-60.48 0-109.504 49.024-109.504 109.504s49.024 109.504 109.504 109.504c60.48 0 109.504-49.024 109.504-109.504-0.064-60.416-49.024-109.44-109.44-109.504zM237.504 746.688c0 0 0 0 0 0-48.64 0-88.128-39.488-88.128-88.192s39.488-88.128 88.128-88.128c48.64 0 88.128 39.488 88.128 88.128-0.064 48.64-39.488 88.128-88.128 88.128zM377.856 549.056c0 0 0 0 0 0-60.48 0-109.504 49.024-109.504 109.504s49.024 109.504 109.504 109.504c60.48 0 109.504-49.024 109.504-109.504-0.064-60.416-49.024-109.44-109.44-109.504zM377.856 746.688c0 0 0 0 0 0-48.64 0-88.192-39.488-88.192-88.192s39.488-88.128 88.128-88.128c48.704 0 88.128 39.488 88.128 88.128-0.064 48.64-39.488 88.128-88.128 88.128zM518.208 549.056c-60.48 0-109.44 49.024-109.44 109.504s49.024 109.504 109.504 109.504 109.504-49.024 109.504-109.504c-0.064-60.416-49.088-109.44-109.504-109.504zM518.208 746.688c-48.704 0-88.128-39.488-88.128-88.192s39.488-88.128 88.128-88.128 88.128 39.488 88.128 88.128c-0.064 48.64-39.488 88.128-88.128 88.128zM658.56 549.056c0 0 0 0 0 0-60.48 0-109.504 49.024-109.504 109.504s49.024 109.504 109.504 109.504c60.48 0 109.504-49.024 109.504-109.504s-49.088-109.44-109.44-109.504zM658.56 746.688c0 0 0 0 0 0-48.704 0-88.128-39.488-88.128-88.192s39.488-88.128 88.128-88.128c48.704 0 88.128 39.488 88.128 88.128s-39.488 88.128-88.128 88.128z" />
<glyph unicode="&#xe914;" glyph-name="apps--simple" d="M863.040-64h-604.608c-67.008 0.128-124.416 41.152-148.352 99.584-1.408 3.456-1.984 6.272-1.984 9.152 0 11.776 9.536 21.376 21.376 21.376 8.896 0 16.448-5.44 19.712-13.12 17.92-43.84 60.032-74.176 109.312-74.304h604.608c65.344 0.064 118.272 53.056 118.336 118.336v604.608c-0.128 49.216-30.4 91.456-73.344 108.992-8.576 3.584-13.952 11.2-13.952 20.032 0 11.776 9.536 21.312 21.376 21.312 2.88 0 5.632-0.576 8.128-1.6 59.328-24.32 100.416-81.664 100.48-148.672v-604.608c-0.128-88.896-72.128-160.896-160.96-160.96zM789.376 21.376h-640c-82.432 0.128-149.248 66.944-149.312 149.312v640c0.128 82.432 66.944 149.248 149.312 149.312h640c82.432-0.128 149.248-66.944 149.376-149.312v-640c-0.128-82.432-66.944-149.248-149.312-149.376zM149.312 917.376c-58.88-0.064-106.56-47.808-106.688-106.688v-640c0.064-58.88 47.808-106.56 106.688-106.688h640c58.88 0.064 106.624 47.744 106.624 106.624v640c-0.064 58.88-47.744 106.56-106.624 106.688h-640zM238.016 533.248c-70.72 0-128 57.344-128 128s57.28 128 128 128c70.72 0 128-57.344 128-128-0.064-70.656-57.344-127.936-128-128zM238.016 746.624c-47.104 0-85.312-38.208-85.312-85.312s38.208-85.312 85.312-85.312c47.104 0 85.376 38.208 85.376 85.312-0.064 47.104-38.272 85.312-85.312 85.312zM392.192 533.248c-70.656 0-128 57.344-128 128s57.344 128 128 128c70.656 0 128-57.344 128-128-0.128-70.656-57.344-127.936-128-128zM392.192 746.624c-47.168 0-85.312-38.208-85.312-85.312s38.208-85.312 85.312-85.312c47.168 0 85.312 38.208 85.312 85.312-0.064 47.104-38.272 85.312-85.312 85.312zM546.432 533.248c-70.656 0-128 57.344-128 128s57.344 128 128 128c70.656 0 128-57.344 128-128-0.128-70.656-57.344-127.936-128-128zM546.432 746.624c-47.168 0-85.312-38.208-85.312-85.312s38.208-85.312 85.312-85.312c47.104 0 85.376 38.208 85.376 85.312s-38.272 85.312-85.376 85.312zM700.608 533.248c-70.656 0-128 57.344-128 128s57.344 128 128 128c70.656 0 128-57.344 128-128-0.128-70.656-57.344-127.936-128-128zM700.608 746.624c-47.104 0-85.312-38.208-85.312-85.312s38.208-85.312 85.376-85.312c47.104 0 85.376 38.208 85.376 85.312s-38.272 85.312-85.376 85.312z" />
<glyph unicode="&#xe915;" glyph-name="arrow-down" d="M697.6 550.4l-185.6-185.6-185.6 185.6-12.8-12.8 198.4-198.4 198.4 198.4-12.8 12.8z" />
<glyph unicode="&#xe916;" glyph-name="arrow-down--simple" d="M729.6 550.4l-217.6-224-217.6 224-32-32 249.6-249.6 249.6 249.6-32 32z" />
<glyph unicode="&#xe917;" glyph-name="arrow-left-light" d="M583.552 562.24l-248.448 248.448h134.272v21.312h-170.688v-170.624h21.312v134.272l248.32-248.32c46.272-48.32 71.68-110.080 71.68-174.016v-309.312h21.376v309.376c0 69.376-27.584 136.384-77.824 188.864z" />
<glyph unicode="&#xe918;" glyph-name="arrow-left-light--simple" d="M663.552 586.88l-291.584 287.744h225.344v42.624h-298.688v-298.688h42.688v226.304l292.096-288.32c58.368-58.368 91.84-141.504 91.84-228.16v-392.576h42.624v392.512c0 97.792-38.080 191.936-104.448 258.368z" />
<glyph unicode="&#xe919;" glyph-name="arrow-left-normal" d="M335.104 490.688l94.848 94.848-15.104 15.104-120.64-120.64 120.64-120.64 15.104 15.104-94.848 94.848h304.896v-405.312h21.376v426.688z" />
<glyph unicode="&#xe91a;" glyph-name="arrow-left-normal--simple" d="M286.144 490.688l155.584 155.584-30.144 30.144-207.104-207.104 207.104-207.104 30.144 30.208-155.584 155.584h439.168v-512.064h42.624v554.688z" />
<glyph unicode="&#xe91b;" glyph-name="arrow-left-sharp" d="M320 505.728v134.272h-21.312v-170.688h170.688v21.312h-134.272l304.896 304.896v-731.584h21.376v783.104z" />
<glyph unicode="&#xe91c;" glyph-name="arrow-left-sharp--simple" d="M341.312 520.832v225.856h-42.688v-298.688h298.688v42.688h-225.856l353.856 353.856v-908.48h42.624v1011.52z" />
<glyph unicode="&#xe91d;" glyph-name="arrow-left-u-turn" d="M480 832c-100.032 0-181.312-81.344-181.312-181.312v-144.896l-99.136 99.136-15.104-15.104 124.864-124.864 124.864 124.864-15.104 15.104-99.136-99.136v144.896c0 88.192 71.808 160 160 160s160-71.808 160-160v-586.688h21.376v586.688c0 100.032-81.344 181.312-181.312 181.312z" />
<glyph unicode="&#xe91e;" glyph-name="arrow-left-u-turn--simple" d="M533.376 917.376c-131.584 0-234.688-103.104-234.688-234.688v-204.544l-155.584 155.584-30.208-30.144 207.104-207.104 207.104 207.104-30.144 30.144-155.584-155.584v204.544c0 107.712 84.288 192 192 192s192-84.288 192-192v-746.688h42.624v746.688c0 131.584-103.104 234.688-234.624 234.688z" />
<glyph unicode="&#xe91f;" glyph-name="arrow-narrow-down" d="M710.4 518.4l-198.4-121.6-198.4 121.6-12.8-12.8 211.2-134.4 211.2 134.4-12.8 12.8z" />
<glyph unicode="&#xe920;" glyph-name="arrow-narrow-down--simple" d="M736 531.2l-224-121.6-224 121.6-19.2-38.4 243.2-134.4 243.2 134.4-19.2 38.4z" />
<glyph unicode="&#xe921;" glyph-name="arrow-narrow-up" d="M512 524.8l-211.2-134.4 12.8-19.2 198.4 128 198.4-121.6 12.8 19.2-211.2 128z" />
<glyph unicode="&#xe922;" glyph-name="arrow-narrow-up--simple" d="M512 537.6l-243.2-134.4 19.2-38.4 224 121.6 224-121.6 19.2 38.4-243.2 134.4z" />
<glyph unicode="&#xe923;" glyph-name="arrow-right" d="M774.4 573.867l-17.067-17.067 100.267-98.133h-731.733v-21.333h731.733l-100.267-98.133 17.067-17.067 123.733 125.867-123.733 125.867z" />
<glyph unicode="&#xe924;" glyph-name="arrow-right-light" d="M533.376 832v-21.312h134.272l-248.64-248.64c-50.048-52.288-77.632-119.36-77.632-188.736v-309.312h21.312v309.376c0 63.872 25.472 125.632 71.552 173.824l248.448 248.448v-134.272h21.376v170.688h-170.688z" />
<glyph unicode="&#xe925;" glyph-name="arrow-right-light--simple" d="M426.688 917.376v-42.624h225.344l-291.584-287.808c-66.368-66.368-104.384-160.448-104.384-258.304v-392.512h42.688v392.512c0 86.592 33.472 169.728 91.776 228.032l292.224 288.384v-226.24h42.624v298.688h-298.688z" />
<glyph unicode="&#xe926;" glyph-name="arrow-right-normal" d="M604.864 604.864l-15.104-15.104 99.136-99.136h-347.584v-426.688h21.312v405.312h326.272l-99.136-99.136 15.104-15.104 124.864 124.928z" />
<glyph unicode="&#xe927;" glyph-name="arrow-right-normal--simple" d="M612.416 676.416l-30.208-30.144 155.584-155.584h-481.856v-554.688h42.688v512.064h439.168l-155.584-155.584 30.208-30.208 207.104 207.104z" />
<glyph unicode="&#xe928;" glyph-name="arrow-right-sharp" d="M682.624 640v-134.272l-341.312 341.312v-783.104h21.312v731.584l304.896-304.896h-134.272v-21.312h170.624v170.688z" />
<glyph unicode="&#xe929;" glyph-name="arrow-right-sharp--simple" d="M682.624 746.688v-225.856l-426.688 426.688v-1011.52h42.688v908.48l353.856-353.856h-225.856v-42.688h298.688v298.688z" />
<glyph unicode="&#xe92a;" glyph-name="arrow-right-u-turn" d="M803.136 604.864l-99.136-99.136v144.896c0 100.032-81.344 181.312-181.376 181.312s-181.312-81.344-181.312-181.312v-586.688h21.312v586.688c0 88.192 71.808 160 160 160s160-71.808 160-160v-144.896l-99.136 99.136-15.104-15.104 124.864-124.864 124.864 124.864-15.104 15.104z" />
<glyph unicode="&#xe92b;" glyph-name="arrow-right-u-turn--simple" d="M880.896 633.728l-155.584-155.584v204.544c0 131.584-103.104 234.688-234.688 234.688s-234.688-103.104-234.688-234.688v-746.688h42.688v746.688c0 107.712 84.288 192 192 192s192-84.288 192-192v-204.544l-155.584 155.584-30.144-30.144 207.040-207.104 207.104 207.104-30.208 30.144z" />
<glyph unicode="&#xe92c;" glyph-name="arrow-straight-down" d="M589.824 178.176l-99.136-99.136v731.584h-21.312v-731.584l-99.136 99.136-15.104-15.104 124.864-124.864 124.864 124.864z" />
<glyph unicode="&#xe92d;" glyph-name="arrow-straight-down--simple" d="M667.584 207.104l-155.584-155.584v908.48h-42.688v-908.48l-155.584 155.584-30.144-30.208 207.104-207.104 207.104 207.104z" />
<glyph unicode="&#xe92e;" glyph-name="arrow-straight-up" d="M480 836.416l-124.864-124.864 15.104-15.040 99.136 99.136v-731.584h21.312v731.584l99.136-99.136 15.104 15.104z" />
<glyph unicode="&#xe92f;" glyph-name="arrow-straight-up--simple" d="M490.688 926.208l-207.104-207.104 30.144-30.144 155.584 155.584v-908.48h42.688v908.48l155.584-155.584 30.208 30.144z" />
<glyph unicode="&#xe930;" glyph-name="arrow-up" d="M512 556.8l-198.4-198.4 12.8-12.8 185.6 185.6 185.6-185.6 12.8 12.8-198.4 198.4z" />
<glyph unicode="&#xe931;" glyph-name="arrow-up--simple" d="M512 563.2l-249.6-249.6 32-32 217.6 224 217.6-217.6 32 32-249.6 243.2z" />
<glyph unicode="&#xe932;" glyph-name="aupeo" d="M96.576 469.76c11.2 213.632 187.2 386.688 400.704 394.048 5.248 0.192 9.344 0.256 14.656 0.256l0.128 21.376c-5.696 0-9.92-0.064-15.552-0.256-224.448-7.744-409.472-189.632-421.248-414.144-5.888-112.576 31.232-221.696 104.512-307.264l16.192 13.888c-69.696 81.408-105.024 185.152-99.392 292.224zM898.112 292.864c-20.928-52.352-51.968-99.264-92.16-139.52-151.232-151.296-397.824-162.048-561.408-24.704-4.544 3.776-8.448 7.232-12.288 10.752l-14.080-16.064c3.712-3.392 7.872-7.040 12.032-10.56 81.344-68.352 181.248-101.824 281.024-101.824 112.832 0 225.408 42.816 309.824 127.232 42.304 42.24 74.816 91.584 96.896 146.752 0.384 1.024 1.6 4.48 3.264 9.152l-20.16 6.912c-1.472-4.224-2.56-7.424-2.944-8.256zM405.312 248.064l341.12 199.936-341.12 199.936v-399.872zM426.688 610.752l277.568-162.752-277.568-162.752v325.44zM654.656 861.184c-31.744 10.944-65.024 18.176-98.88 21.696l-2.176-21.248c32.256-3.328 63.872-10.24 94.080-20.672 202.24-69.632 320.128-286.528 268.288-493.76l20.672-5.184c54.464 217.92-69.44 445.888-282.048 519.104z" />
<glyph unicode="&#xe933;" glyph-name="aupeo--simple" d="M512.128 876.608l-0.448 42.624c-255.872-2.88-464-213.376-464-469.312 0-113.344 40.96-222.848 115.392-308.224l32.128 28.032c-67.584 77.632-104.896 177.152-104.896 280.192 0 232.64 189.248 424 421.76 426.688zM517.056 23.296c-105.088 0-206.080 38.528-284.288 108.544l-28.48-31.872c86.080-76.992 197.184-119.424 312.768-119.424 196.032 0 373.12 123.584 440.704 307.456l-40.128 14.72c-61.376-167.168-222.4-279.552-400.64-279.552zM556.416 917.696l-3.584-42.496c219.2-18.176 390.848-204.992 390.848-425.216 0-32.128-3.584-64.192-10.624-95.232l41.536-9.536c7.744 34.176 11.776 69.44 11.776 104.704 0 242.24-188.864 447.68-430.016 467.712zM790.208 448l-406.144 228.48v-456.96l406.144 228.48zM426.688 603.52l276.544-155.52-276.544-155.584v311.104z" />
<glyph unicode="&#xe934;" glyph-name="back" d="M601.6 243.2l-198.4 204.8 204.8 204.8 12.8-12.8-192-192 185.6-185.6-12.8-19.2z" />
<glyph unicode="&#xe935;" glyph-name="back--simple" d="M582.4 198.4l-249.6 249.6 249.6 249.6 32-32-224-217.6 217.6-217.6-25.6-32z" />
<glyph unicode="&#xe936;" glyph-name="bell" d="M768 554.667c-4.243 109.185-73.183 201.253-169.384 239.261l-1.816 0.632c-2.653 44.746-39.589 80.030-84.766 80.030-44.35 0-80.758-34.003-84.576-77.361l-0.023-0.322c-100.43-33.742-171.492-127.019-171.492-236.894 0-1.88 0.021-3.755 0.062-5.624l-0.005 0.279c0-256-128-320-128-426.667h257.92c10.523-60.905 62.96-106.646 126.080-106.646s115.557 45.741 125.971 105.884l0.109 0.762h257.92c0 106.667-128 170.667-128 426.667zM512 42.667c-51.34 0.067-94.192 36.329-104.41 84.635l-0.124 0.698h209.067c-10.341-49.004-53.193-85.266-104.526-85.333h-0.007zM151.467 149.333c9.009 33.521 22.329 62.896 39.619 89.449l-0.729-1.193c54.65 87.352 87.060 193.475 87.060 307.167 0 3.484-0.030 6.961-0.091 10.431l0.007-0.521c-0.029 1.359-0.045 2.96-0.045 4.565 0 100.694 64.957 186.218 155.253 216.952l1.614 0.477 13.269 4.416 1.259 13.931c2.82 32.757 30.106 58.277 63.352 58.277 33.863 0 61.542-26.476 63.466-59.856l0.008-0.17 0.853-13.717 12.8-4.907c89.981-35.423 153.334-119.801 157.488-219.473l0.016-0.495c-0.052-2.908-0.082-6.338-0.082-9.775 0-113.748 32.442-219.919 88.578-309.765l-1.435 2.463c16.532-25.361 29.824-54.738 38.307-86.092l0.499-2.164z" />
<glyph unicode="&#xe937;" glyph-name="bell--simple" d="M768 554.667c-4.259 109.178-73.181 201.242-169.363 239.282l-1.816 0.633c-2.588 44.803-39.552 80.155-84.774 80.155-44.409 0-80.855-34.094-84.591-77.535l-0.022-0.316c-100.429-33.734-171.492-127.008-171.492-236.879 0-1.878 0.021-3.75 0.062-5.618l-0.005 0.278c0-256-128-320-128-426.667h257.92c10.897-60.561 63.192-105.913 126.080-105.913s115.183 45.352 125.964 105.135l0.116 0.779h257.92c0 106.667-128 170.667-128 426.667zM512 64c-0.005 0-0.011 0-0.016 0-39.433 0-72.575 26.936-82.030 63.411l-0.13 0.589h164.352c-9.585-37.064-42.727-64-82.16-64-0.006 0-0.012 0-0.017 0h0.001zM179.968 170.667c9.99 22.53 19.713 41.083 30.448 58.957l-1.35-2.423c56.306 90.077 89.696 199.494 89.696 316.71 0 3.782-0.035 7.557-0.104 11.322l0.008-0.566c-0.059 1.832-0.092 3.987-0.092 6.15 0 90.928 59.024 168.071 140.848 195.204l1.452 0.417 26.539 8.789 2.517 27.861c1.713 21.912 19.915 39.043 42.119 39.043 22.609 0 41.070-17.763 42.186-40.095l0.004-0.1 1.707-27.435 25.6-9.771c82.001-32.138 139.801-108.878 143.77-199.593l0.016-0.471c-0.061-3.201-0.096-6.975-0.096-10.757 0-117.216 33.39-226.633 91.178-319.259l-1.483 2.549c9.327-15.434 18.994-33.989 27.57-53.14l1.358-3.394z" />
<glyph unicode="&#xe938;" glyph-name="blog-post" d="M682.624 64h-533.376v266.624c0.064 41.216 33.408 74.624 74.624 74.624h384.064c41.216-0.064 74.56-33.472 74.688-74.624v-266.624zM170.688 85.376h490.688v245.376c-0.064 29.44-23.872 53.248-53.312 53.376h-384.064c-29.44-0.064-53.312-23.872-53.312-53.376v-245.376zM480 469.312h-127.296c-41.536 0.064-75.264 33.728-75.328 75.264v126.72c0.064 41.536 33.728 75.264 75.328 75.328h127.36c41.216-0.064 74.624-33.408 74.688-74.624v-128c-0.064-41.216-33.472-74.624-74.688-74.688zM352.704 725.312c-29.824-0.064-53.952-24.192-53.952-53.952v-126.72c0-29.824 24.192-53.952 53.952-53.952h127.36c29.44 0 53.312 23.872 53.376 53.312v128c-0.064 29.44-23.872 53.312-53.312 53.312h-127.36zM673.6 500.928l-15.232 14.976c101.056 102.784 4.032 208.896-0.192 213.376l15.552 14.592c1.152-1.216 115.072-125.824-0.192-242.944zM786.752 398.912l-14.080 16.064c68.032 59.776 102.272 124.608 101.952 192.832-0.576 115.584-100.8 203.136-101.824 204.032l13.888 16.128c4.416-3.776 108.608-94.848 109.248-220.032 0.384-74.688-36.352-144.96-109.184-208.96z" />
<glyph unicode="&#xe939;" glyph-name="blog-post--simple" d="M640-21.376h-597.376v316.608c0 0.448 0 0.896 0 1.472 0 35.264 27.712 64.128 62.528 65.92h472.192c34.944-1.792 62.656-30.656 62.656-65.92 0-0.512 0-0.96-0.064-1.536v-316.608zM85.312 21.376h512v273.984c0.064 0.384 0.064 0.768 0.064 1.28 0 11.776-8.576 21.568-19.84 23.424l-472.192 0.064c-11.456-1.856-20.032-11.648-20.032-23.488 0-0.448 0-0.896 0-1.344v-273.92zM405.312 448h-128c-58.88 0.064-106.56 47.808-106.688 106.688v128c0.064 58.88 47.808 106.56 106.688 106.688h128c58.88-0.064 106.56-47.808 106.688-106.688v-128c-0.064-58.88-47.808-106.56-106.688-106.688zM277.312 746.688c-35.328-0.064-64-28.672-64-64v-128c0.064-35.328 28.672-64 64-64h128c35.328 0 64 28.672 64 64v128c0 35.328-28.672 64-64 64h-128zM663.232 493.76l-30.464 29.952c109.76 111.616 4.16 228.224-0.384 233.152l31.232 29.12c37.568-37.248 60.8-88.896 60.8-145.92 0-57.216-23.424-108.992-61.184-146.24zM809.92 386.368l-28.16 32.064c66.176 50.112 109.696 127.104 114.176 214.4-0.64 129.664-112.896 227.712-114.048 228.736l27.84 32.32c5.248-4.544 128.128-111.872 128.896-260.096-4.16-100.928-53.376-189.568-127.936-246.784z" />
<glyph unicode="&#xe93a;" glyph-name="bookmark" d="M213.312 896v-911.104l288 288 288-288v911.104h-576zM768 36.416l-266.688 266.688-266.688-266.624v838.272h533.376v-838.272z" />
<glyph unicode="&#xe93b;" glyph-name="bookmark--simple" d="M213.312 960v-1011.52l298.688 298.624 298.624-298.624v1011.52h-597.376zM768 51.52l-256 256-256-256v865.856h512v-865.856z" />
<glyph unicode="&#xe93c;" glyph-name="break-pad" d="M522.624 490.688c-41.152 0-74.688-33.536-74.688-74.688s33.536-74.688 74.688-74.688 74.624 33.536 74.624 74.624c0 41.152-33.536 74.688-74.624 74.688zM522.624 362.624c-29.44 0-53.312 23.872-53.312 53.376s23.936 53.312 53.312 53.312c29.44 0 53.376-23.936 53.376-53.312s-23.872-53.376-53.376-53.376zM533.376 810.176v96.512c0 5.888-4.736 10.624-10.56 10.624h-5.696c-274.88-1.536-497.28-226.496-495.68-501.376 0.064-5.888 4.8-10.56 10.624-10.56h96.512c5.76-212.672 180.096-384 394.112-384 217.6 0 394.688 177.088 394.688 394.624 0 214.016-171.328 388.416-384 394.176zM42.688 426.624c4.224 256.576 212.032 465.088 469.248 469.248v-192.128c-150.336-5.504-271.68-126.784-277.12-277.12h-192.128zM522.624 42.624c-202.24 0-367.104 161.728-372.8 362.624h95.488c5.888 0 10.688 4.8 10.688 10.624 0 147.008 119.616 266.688 266.688 266.688 5.888 0 10.624 4.736 10.624 10.688v95.488c200.896-5.76 362.624-170.496 362.624-372.8 0-205.824-167.488-373.376-373.376-373.376zM522.624 576c-88.192 0-160-71.808-160-160s71.808-160 160-160 160 71.744 160 160-71.744 160-160 160zM522.624 277.312c-76.416 0-138.688 62.208-138.688 138.688s62.208 138.688 138.688 138.688 138.624-62.208 138.624-138.688c0-76.416-62.208-138.624-138.624-138.624z" />
<glyph unicode="&#xe93d;" glyph-name="break-pad--simple" d="M512 745.216v65.408c0 5.696-2.24 11.136-6.272 15.104s-9.856 6.976-15.168 6.144c-268.032-2.432-488.128-222.4-490.496-490.496-0.064-5.696 2.176-11.2 6.208-15.232 3.84-3.904 9.216-6.336 15.104-6.336h65.408c14.72-212.8 187.84-379.776 404.288-384 222.72 4.352 400.576 182.144 404.928 405.76-4.224 215.68-171.2 388.736-384 403.456zM43.328 362.624c12.992 227.968 198.016 412.992 425.92 425.984v-172.032c-131.392-17.856-236.032-122.56-253.952-253.952h-172.032zM491.072-21.376c-192.384 3.776-346.944 151.936-361.6 341.376h105.152c11.2 0 20.544 8.704 21.312 19.84 8.512 126.080 110.080 227.712 236.16 236.224 11.2 0.768 19.904 10.048 19.904 21.248v105.152c189.376-14.656 337.6-169.216 341.376-360.832-3.84-199.68-163.392-359.232-362.24-363.072zM490.24 458.24c-60.928 0-110.528-49.536-110.528-110.464s49.536-110.464 110.528-110.464 110.464 49.536 110.464 110.464-49.536 110.464-110.464 110.464zM490.24 279.872c-37.44 0-67.84 30.464-67.84 67.84s30.464 67.84 67.84 67.84c37.44 0 67.84-30.464 67.84-67.84s-30.464-67.84-67.84-67.84z" />
<glyph unicode="&#xe93e;" glyph-name="break-pad-alert" d="M768 789.312h-21.376v-128h21.376v128zM768 576v42.688h-21.376v-42.688h21.376zM522.624 42.624c-202.24 0-367.104 161.728-372.8 362.624h95.488c5.888 0 10.688 4.8 10.688 10.624 0 147.008 119.616 266.688 266.688 266.688 5.888 0 10.624 4.736 10.624 10.688v95.488c21.44-0.448 43.456-2.688 64.64-6.976l4.224 20.928c-22.656 4.544-45.76 6.848-68.864 7.36v96.512c0 5.888-4.736 10.624-10.56 10.624h-5.696c-274.88-1.536-497.28-226.496-495.68-501.44 0.064-5.888 4.8-10.56 10.624-10.56h96.512c5.76-212.672 180.096-384 394.112-384 217.6 0 394.688 177.088 394.688 394.624h-21.376c0-205.824-167.488-373.376-373.376-373.376zM42.688 426.624c4.224 256.576 212.032 465.088 469.248 469.248v-192.128c-150.336-5.504-271.68-126.784-277.12-277.12h-192.128zM988.8 512l-230.784 416.64-232.128-416.64h462.912zM952.576 533.312h-390.464l195.776 351.36 194.56-351.36zM522.624 341.312c41.152 0 74.624 33.536 74.624 74.688s-33.536 74.688-74.624 74.688-74.688-33.536-74.688-74.688c0-41.152 33.536-74.624 74.688-74.624zM522.624 469.312c29.44 0 53.376-23.936 53.376-53.312s-23.872-53.376-53.376-53.376c-29.44 0-53.312 23.872-53.312 53.376s23.936 53.312 53.312 53.312zM378.112 347.776c18.368-38.656 50.56-67.776 90.88-82.176 17.536-6.272 35.776-9.344 53.824-9.344 23.424 0 46.72 5.248 68.416 15.488 55.424 26.304 91.328 82.88 91.392 144.256l-21.376 0.064c-0.128-53.12-31.232-102.208-79.232-124.992-33.472-15.872-71.104-17.792-106.048-5.376s-62.848 37.696-78.72 71.168-17.728 71.104-5.312 106.048 37.76 62.848 71.168 78.72l-9.152 19.264c-79.68-37.824-113.792-133.44-76.032-213.12z" />
<glyph unicode="&#xe93f;" glyph-name="break-pad-alert--simple" d="M491.072-21.376c-192.384 3.776-346.944 151.936-361.6 341.376h103.872c11.2 0 20.544 8.704 21.312 19.84 7.808 114.112 87.232 210.88 197.568 240.704l-11.136 41.152c-121.536-32.832-210.624-135.616-227.072-259.072h-170.688c12.992 227.968 198.016 412.992 425.92 425.984v-127.296h42.688v149.312c0 5.696-2.24 11.136-6.272 15.104s-9.856 6.976-15.168 6.144c-268.032-2.432-488.128-222.4-490.496-490.432-0.064-5.696 2.176-11.2 6.208-15.232 3.84-3.904 9.216-6.336 15.104-6.336h65.408c14.72-212.8 187.84-379.776 404.288-384 222.72 4.352 400.576 182.144 404.928 404.928l-42.624 0.832c-3.84-199.68-163.392-359.232-362.24-363.072zM768 746.688h-42.624v-128h42.624v128zM768 490.688v85.312h-42.624v-85.312h42.624zM380.224 349.248c-0.384-5.12-0.384-10.176 0-15.296 2.048-29.44 15.424-56.32 37.696-75.776 20.288-17.6 45.76-27.136 72.384-27.136 2.56 0 5.248 0.128 7.808 0.256 60.8 4.224 106.816 57.152 102.592 117.888l-42.56-3.008c1.28-18.048-4.608-35.584-16.512-49.216s-28.416-21.888-46.464-23.104c-17.92-1.472-35.584 4.608-49.216 16.512s-21.888 28.416-23.168 46.464c-0.128 1.408-0.192 3.008-0.192 4.672s0.064 3.264 0.192 4.864l-42.56 2.752zM1026.496 405.376l-279.808 559.68-279.808-559.68h559.68zM957.504 448h-421.632l210.816 421.632 210.816-421.632z" />
<glyph unicode="&#xe940;" glyph-name="briefcase" d="M85.333 672v-554.667c0-23.467 19.2-42.667 42.667-42.667h810.667v597.333h-853.333zM917.333 96h-789.333c-12.8 0-21.333 8.533-21.333 21.333v533.333h810.667v-554.667zM874.667 437.333h-725.333v-21.333h725.333v21.333zM576 373.333c0-12.8-8.533-21.333-21.333-21.333h-85.333c-12.8 0-21.333 8.533-21.333 21.333v21.333h-21.333v-21.333c0-23.467 19.2-42.667 42.667-42.667h85.333c23.467 0 42.667 19.2 42.667 42.667v21.333h-21.333v-21.333zM384 736c0 36.267 27.733 64 64 64h128c36.267 0 64-27.733 64-64v-42.667h21.333v42.667c0 46.933-38.4 85.333-85.333 85.333h-128c-46.933 0-85.333-38.4-85.333-85.333v-42.667h21.333v42.667zM618.667 693.333v42.667c0 23.467-19.2 42.667-42.667 42.667h-128c-23.467 0-42.667-19.2-42.667-42.667v-42.667h21.333v42.667c0 12.8 8.533 21.333 21.333 21.333h128c12.8 0 21.333-8.533 21.333-21.333v-42.667h21.333z" />
<glyph unicode="&#xe941;" glyph-name="brochure" d="M885.333 661.333h-10.667c-4.267 44.8-40.533 78.933-85.333 85.333v10.667c0 6.4 0 12.8-2.133 19.2-10.667 40.533-51.2 64-91.733 53.333l-631.467-172.8v-507.733c0 0 0 0 0 0v0c0-32 25.6-64 53.333-64h842.667v501.333c0 40.533-34.133 74.667-74.667 74.667zM85.333 142.933c0 2.133 0 4.267 0 8.533v490.667l614.4 168.533c27.733 8.533 57.6-8.533 66.133-38.4 2.133-4.267 2.133-8.533 2.133-14.933v-352h-170.667v-172.8l-471.467-115.2c-19.2-4.267-36.267 6.4-40.533 25.6zM753.067 384l-134.4-134.4v134.4h134.4zM614.4 213.333l174.933 174.933v334.933c36.267-4.267 64-36.267 64-72.533v-471.467l-629.333-59.733 390.4 93.867zM938.667 106.667h-637.867l573.867 53.333v480h10.667c29.867 0 53.333-23.467 53.333-53.333v-480z" />
<glyph unicode="&#xe942;" glyph-name="brochure--simple" d="M981.333 64h-832l-4.267 42.667 708.267 123.733v558.933h42.667v-89.6c46.933-8.533 85.333-51.2 85.333-102.4v-533.333zM392.533 106.667h546.133v490.667c0 29.867-17.067 51.2-42.667 59.733v-460.8l-503.467-89.6zM106.667 140.8c-12.8 0-21.333 4.267-29.867 8.533-12.8 8.533-25.6 21.333-29.867 38.4-4.267 4.267-4.267 12.8-4.267 17.067v516.267l686.933 179.2c17.067 4.267 34.133 0 46.933-8.533s25.6-21.333 29.867-38.4c0-4.267 0-8.533 0-17.067v-375.467l-179.2-179.2-503.467-136.533c-4.267-4.267-12.8-4.267-17.067-4.267zM85.333 686.933v-482.133c0 0 0-4.267 0-4.267 0-4.267 4.267-8.533 8.533-12.8s12.8-4.267 17.067 0l486.4 128v174.933h170.667v345.6c0 0 0 4.267 0 4.267 0 4.267-4.267 8.533-8.533 12.8s-8.533 4.267-17.067 4.267l-657.067-170.667zM640 448v-98.133l98.133 98.133h-98.133z" />
<glyph unicode="&#xe943;" glyph-name="business-adress" d="M170.688 170.624h426.688v-21.376h-426.688zM170.688 277.376h597.376v-21.376h-597.376zM332.032 404.224c-0.128 0-0.32 0-0.384 0-53.312 0-96.512 43.008-96.896 96.192v310.144h21.312v-310.144c0.32-41.472 34.048-74.944 75.584-74.944 0.192 0 0.32 0 0.512 0 40.96 0.32 74.048 33.536 74.048 74.56 0 0.128 0 0.256 0 0.32l-0.704 317.568c0 0.384 0 0.896 0 1.344 0 41.728-33.408 75.712-74.944 76.608h-81.024c-43.008-0.384-77.888-34.944-78.656-77.824v-124.8h-21.312v124.8c0.96 54.72 45.312 98.688 99.968 99.2h80.96c53.44-0.832 96.384-44.416 96.384-97.92 0-0.448 0-0.896 0-1.408l0.768-317.44c0-0.128 0-0.192 0-0.32 0-52.8-42.688-95.68-95.36-95.936zM1002.624-21.376h-928c-29.44 0.064-53.312 23.872-53.376 53.376v672h928c29.44 0 53.312-23.872 53.376-53.312v-672zM42.624 682.688v-650.624c0-17.664 14.336-31.936 32-32h906.624v650.624c-0.064 17.664-14.336 32-32 32h-906.624z" />
<glyph unicode="&#xe944;" glyph-name="business-adress--simple" d="M128 234.624h597.376v-42.624h-597.376zM362.688 362.624c-65.152 0-106.688 98.048-106.688 149.312v277.312h42.688v-277.312c0-42.112 34.368-106.688 64-106.688s64 64.512 64 106.688v284.416c-0.32 43.264-35.456 78.208-78.784 78.208-0.128 0-0.192 0-0.32 0h-99.52c-42.816-0.384-77.376-35.2-77.376-78.080 0-0.192 0-0.384 0-0.576v-134.656h-42.688v134.72c0 0.128 0 0.32 0 0.448 0 66.432 53.696 120.384 120 120.768h99.584c0.064 0 0.192 0 0.256 0 66.88 0 121.152-54.080 121.472-120.896v-284.416c0-51.264-41.536-149.312-106.688-149.312zM1024 21.376h-958.848c-0.128 0-0.384 0-0.512 0-35.392 0-64.256 28.544-64.64 63.872v618.752h959.424c35.776-0.256 64.64-29.312 64.64-65.088 0-0.128 0-0.192 0-0.32v-617.28zM42.624 661.312v-576.128c0.384-11.776 10.048-21.248 21.888-21.248 0.192 0 0.384 0 0.64 0h916.16v574.656c0 0 0 0.064 0 0.128 0 12.224-9.728 22.272-21.888 22.592h-916.736z" />
<glyph unicode="&#xe945;" glyph-name="calculator" d="M460.8 253.867l-128-128 14.933-14.933 128 128-14.933 14.933zM352 256h-21.333v-21.333h21.333v21.333zM458.667 106.667h21.333v21.333h-21.333v-21.333zM416 469.333h-21.333v-64h-64v-21.333h64v-64h21.333v64h64v21.333h-64v64zM565.333 213.333h149.333v21.333h-149.333v-21.333zM565.333 149.333h149.333v21.333h-149.333v-21.333zM565.333 384h149.333v21.333h-149.333v-21.333zM746.667 917.333h-448c-40.533 0-74.667-34.133-74.667-74.667v-789.333c0-40.533 34.133-74.667 74.667-74.667h448c40.533 0 74.667 34.133 74.667 74.667v789.333c0 40.533-34.133 74.667-74.667 74.667zM800 53.333c0-29.867-23.467-53.333-53.333-53.333h-448c-29.867 0-53.333 23.467-53.333 53.333v789.333c0 29.867 23.467 53.333 53.333 53.333h448c29.867 0 53.333-23.467 53.333-53.333v-789.333zM266.667 576h512v192h-512v-192zM288 746.667h469.333v-149.333h-469.333v149.333z" />
<glyph unicode="&#xe946;" glyph-name="calculator--simple" d="M298.667 362.667h-42.667v-42.667h42.667v42.667zM294.4 153.6l170.667 170.667-29.867 29.867-170.667-170.667 29.867-29.867zM426.667 149.333h42.667v42.667h-42.667v-42.667zM768 320h-213.333v-42.667h213.333v42.667zM768 234.667h-213.333v-42.667h213.333v42.667zM746.667 917.333h-469.333c-59.733 0-106.667-46.933-106.667-106.667v-725.333c0-59.733 46.933-106.667 106.667-106.667h469.333c59.733 0 106.667 46.933 106.667 106.667v725.333c0 59.733-46.933 106.667-106.667 106.667zM810.667 85.333c0-34.133-29.867-64-64-64h-469.333c-34.133 0-64 29.867-64 64v448h597.333v-448zM810.667 576h-597.333v234.667c0 34.133 29.867 64 64 64h469.333c34.133 0 64-29.867 64-64v-234.667z" />
<glyph unicode="&#xe947;" glyph-name="calendar-events" d="M908.736-21.376h-602.176c-27.904 0.064-50.56 22.656-50.56 50.56v109.44h21.312v-109.44c0-16.128 13.12-29.248 29.248-29.248h602.176c16.32 0.064 29.504 13.056 29.952 29.248v653.44h21.376v-653.44c-0.256-28.032-22.976-50.56-50.944-50.56-0.128 0-0.192 0-0.32 0zM588.864 128.512h-474.24c-27.904 0.064-50.496 22.656-50.56 50.56v631.552h21.312v-631.552c0-16.128 13.056-29.248 29.248-29.248h469.824l204.928 205.952v454.848h21.376v-459.264c0-2.944-1.152-5.632-3.136-7.488l-211.136-212.224c-1.92-1.92-4.608-3.136-7.552-3.136 0 0 0 0 0 0zM597.376 139.2h-21.376v224h224v-21.376h-202.624v-202.688zM64 917.376h746.624v-21.376h-746.624zM278.272 705.28l-83.392-20.224v-17.664l77.056 17.152v-234.688h-77.824v-17.536h180.736v17.536h-77.824v255.424h-18.752zM476.608 592.768l-8 0.384 4.736 94.592h163.584v17.472h-185.536l-6.4-130.176c118.912-2.56 179.2-25.792 179.2-68.928 0-27.136-17.152-59.456-98.56-59.456-33.024 0.256-64.896 4.928-95.104 13.568l2.56-19.456c26.24-8.448 56.384-13.248 87.68-13.248 1.472 0 2.88 0 4.288 0.064 81.664 0 126.656 28.288 126.656 79.808 0 50.688-58.944 79.488-175.168 85.44z" />
<glyph unicode="&#xe948;" glyph-name="calendar-events--simple" d="M917.44-64h-640.256c-35.264 0.128-63.872 28.672-63.872 64 0 0 0 0 0 0v128.32h42.624v-128.32c0 0 0-0.064 0-0.064 0-11.712 9.472-21.248 21.184-21.248h640.32c11.712 0.064 21.248 9.536 21.248 21.248 0 0 0 0.064 0 0.064v704h42.624v-704c0 0 0 0 0 0 0-35.328-28.608-63.936-63.872-64zM576 106.624h-512.32c-0.064 0-0.128 0-0.192 0-34.944 0-63.296 28.224-63.552 63.104v662.208h42.624v-662.208c0.192-11.392 9.408-20.48 20.8-20.48 0.064 0 0.128 0 0.256 0h503.488l200.832 200.832v481.856h42.624v-490.688c0-5.888-2.368-11.2-6.272-15.104l-213.376-213.312c-3.84-3.84-9.152-6.272-15.104-6.272zM597.376 128h-42.624v234.624h234.624v-42.624h-192v-192zM0 960h810.56v-42.624h-810.56zM171.456 707.904l87.936 21.12h25.728v-245.824h74.944v-32.256h-189.376v32.256h74.944v208.576l-74.176-16.512v32.64zM412.16 461.248v33.792c28.928-9.216 62.144-14.656 96.64-14.976 61.952 0 87.36 19.968 87.36 49.536 0 51.456-117.12 58.048-172.864 58.752l6.912 140.544h193.6v-32.256h-157.824l-3.84-76.032c82.624-4.288 175.872-22.656 175.872-89.92 0-48.384-39.232-84.48-129.856-84.48-1.408-0.064-3.136-0.064-4.8-0.064-32.64 0-64 5.504-93.184 15.616z" />
<glyph unicode="&#xe949;" glyph-name="camera" d="M928 128h-885.376v501.312c0 0.192 0 0.384 0 0.576 0 29.12 23.616 52.736 52.8 52.736 0.192 0 0.384 0 0.64 0h159.936v32c0 0.128 0 0.384 0 0.576 0 29.184 23.616 52.8 52.736 52.8 0.192 0 0.384 0 0.64 0h405.312c0.128 0 0.32 0 0.512 0 29.184 0 52.864-23.68 52.864-52.864 0-0.128 0-0.32 0-0.448v-32h213.376v-501.312c0-0.128 0-0.384 0-0.576 0-29.12-23.616-52.8-52.8-52.8-0.192 0-0.448 0-0.576 0zM64 149.376h864c0.256 0 0.512 0 0.704 0 17.28 0 31.296 14.016 31.296 31.296 0 0.256 0 0.512 0 0.768v480h-213.376v53.312c0 0.192 0 0.384 0 0.64 0 17.344-14.080 31.36-31.424 31.36-0.256 0-0.448 0-0.704 0h-405.312c-0.192 0-0.448 0-0.704 0-17.28 0-31.296-14.016-31.296-31.296 0-0.256 0-0.448 0-0.704v-53.312h-181.312c-0.256 0-0.448 0-0.704 0-17.28 0-31.296-14.016-31.296-31.296 0-0.256 0-0.512 0-0.704v-480zM512 213.312c-117.824 0-213.312 95.488-213.312 213.312s95.488 213.312 213.312 213.312c117.824 0 213.376-95.488 213.376-213.312-0.128-117.824-95.616-213.248-213.376-213.376zM512 618.688c0 0 0 0 0 0-106.048 0-192-85.952-192-192s85.952-192 192-192c105.984 0 191.936 85.952 192 191.936-0.128 105.984-86.016 191.872-191.936 192.064z" />
<glyph unicode="&#xe94a;" glyph-name="camera--simple" d="M917.376 106.752h-874.624v490.624c0 35.264 28.672 63.872 64 64h149.376v21.568c0.128 35.264 28.672 63.808 63.936 63.808 0 0 0 0 0 0h384c35.2-0.064 63.744-28.48 63.936-63.616v-21.76h213.312v-490.752c-0.128-35.264-28.672-63.744-63.936-63.744 0 0 0 0 0 0zM85.312 149.248h832.064c0 0 0.064 0 0.064 0 11.776 0 21.248 9.472 21.376 21.248v448.192h-213.376v64.256c-0.128 11.712-9.6 21.056-21.376 21.056 0 0-0.064 0-0.064 0h-384c0 0 0 0 0 0-11.712 0-21.248-9.472-21.312-21.184v-64.128h-191.936c-11.776 0-21.376-9.536-21.376-21.376v-448zM512 192.064c-117.824 0-213.248 95.488-213.248 213.248s95.488 213.248 213.248 213.248c117.824 0 213.248-95.488 213.248-213.248-0.128-117.696-95.552-213.12-213.248-213.248zM512 576.064c-94.272 0-170.752-76.416-170.752-170.688s76.416-170.752 170.752-170.752c94.272 0 170.752 76.416 170.752 170.752-0.128 94.272-76.48 170.624-170.752 170.752z" />
<glyph unicode="&#xe94b;" glyph-name="cancel" d="M320.32 292.736l346.944 346.944 15.104-15.104-346.944-346.944zM320.32 624.64l15.104 15.104 346.88-347.008-15.104-15.104z" />
<glyph unicode="&#xe94c;" glyph-name="cancel--simple" d="M236.736 245.504l477.76 477.76 30.208-30.144-477.76-477.76zM236.608 693.12l30.144 30.144 477.888-477.632-30.208-30.208z" />
<glyph unicode="&#xe94d;" glyph-name="captions-closed-off" d="M791.467 620.8v-27.733c-36.267 12.8-211.2 81.067-211.2-140.8s172.8-157.867 217.6-142.933v-27.733c-14.933-8.533-249.6-98.133-249.6 170.667-2.133 256 219.733 181.333 243.2 168.533zM465.067 620.8v-27.733s-211.2 102.4-211.2-140.8 215.467-145.067 215.467-145.067v-27.733c-19.2-8.533-249.6-89.6-249.6 170.667 0 264.533 234.667 174.933 245.333 170.667zM64 746.667v-544c-0.032-0.678-0.051-1.473-0.051-2.272 0-28.2 22.861-51.061 51.061-51.061 0.067 0 0.133 0 0.2 0h844.79v544c0.032 0.678 0.051 1.473 0.051 2.272 0 28.2-22.861 51.061-51.061 51.061-0.067 0-0.133 0-0.2 0h0.010zM906.667 768c0.271 0.004 0.592 0.006 0.913 0.006 40.308 0 73.065-32.331 73.753-72.474l0.001-0.065v-567.467h-864c-0.271-0.004-0.592-0.006-0.913-0.006-40.308 0-73.065 32.331-73.753 72.474l-0.001 0.065v567.467z" />
<glyph unicode="&#xe94e;" glyph-name="captions-closed-off--simple" d="M776.533 610.133v-38.4s-192 85.333-192-119.467c0-196.267 183.467-128 196.267-123.733v-38.4c-21.333-12.8-243.2-76.8-243.2 157.867 0 221.867 196.267 187.733 238.933 162.133zM469.333 610.133v-38.4s-192 89.6-192-119.467c0-200.533 183.467-128 196.267-123.733v-38.4s-243.2-93.867-243.2 157.867c0 243.2 230.4 170.667 238.933 162.133zM921.6 721.067h-840.533v-529.067c0-0.025 0-0.055 0-0.085 0-10.355 7.232-19.020 16.921-21.22l0.146-0.028h844.8v533.333c-1.215 9.719-9.427 17.165-19.377 17.165-0.689 0-1.369-0.036-2.040-0.105l0.084 0.007zM921.6 759.467c31.484-0.095 57.264-24.391 59.72-55.256l0.013-0.21v-567.467h-878.933c-31.484 0.095-57.264 24.391-59.72 55.256l-0.013 0.21v567.467z" />
<glyph unicode="&#xe94f;" glyph-name="captions-closed-on" d="M42.667 810.667v-565.333c-0.004-0.271-0.006-0.592-0.006-0.913 0-40.308 32.331-73.065 72.474-73.753l0.065-0.001h866.133v565.333c0.004 0.271 0.006 0.592 0.006 0.913 0 40.308-32.331 73.065-72.474 73.753l-0.065 0.001zM960 192h-842.667c-0.678-0.032-1.473-0.051-2.272-0.051-28.2 0-51.061 22.861-51.061 51.061 0 0.067 0 0.133 0 0.2v-0.010 546.133h842.667c0.678 0.032 1.473 0.051 2.272 0.051 28.2 0 51.061-22.861 51.061-51.061 0-0.067 0-0.133 0-0.2v0.010zM42.667 85.333h938.667v21.333h-938.667zM279.467 494.933c0 187.733 164.267 117.333 189.867 106.667v59.733c-57.6 29.867-264.533 66.133-264.533-166.4s185.6-200.533 266.667-170.667v59.733s-97.225-43.29-153.943-4.77c-25.781 17.508-38.057 54.903-38.057 115.703zM605.867 494.933c0 187.733 164.267 117.333 189.867 106.667v59.733c-57.6 27.733-262.4 66.133-262.4-166.4s185.6-200.533 266.667-170.667v59.733c-20.557-8.222-100.514-38.099-150.995-7.957-28.105 16.779-43.138 55.531-43.138 118.891z" />
<glyph unicode="&#xe950;" glyph-name="captions-closed-on--simple" d="M42.667 819.2v-567.467c-0.133-1.434-0.209-3.102-0.209-4.788 0-30.348 24.602-54.95 54.95-54.95 0.255 0 0.51 0.002 0.764 0.005h883.161v567.467c-0.095 31.484-24.391 57.264-55.256 59.72l-0.21 0.013zM938.667 234.667h-832c-0.025 0-0.055 0-0.085 0-10.355 0-19.020 7.232-21.22 16.921l-0.028 0.146v524.8h832c0.025 0 0.055 0 0.085 0 10.355 0 19.020-7.232 21.22-16.921l0.028-0.146zM42.667 64h938.667v42.667h-938.667zM294.4 516.267c0 174.933 153.6 110.933 179.2 102.4v51.2c-55.467 25.6-247.467 64-247.467-157.867s174.933-187.733 251.733-162.133v55.467c-29.867-8.533-107.52-29.013-145.067 0-24.471 23.43-39.68 56.362-39.68 92.846 0 6.381 0.465 12.652 1.363 18.784l-0.084-0.697zM597.333 516.267c0 174.933 153.6 110.933 179.2 102.4v51.2c-55.467 25.6-247.467 64-247.467-157.867s174.933-187.733 251.733-162.133v55.467c-50.534-16.969-114.347-23.040-145.067 0-28.587 21.47-38.4 55.467-38.4 110.933z" />
<glyph unicode="&#xe951;" glyph-name="car" d="M753.472 277.632l4.672 20.8 237.056-53.376-4.672-20.8zM28.096 245.056l232.448 53.376 4.736-20.8-232.448-53.376zM769.536 448l-527.232 0.448-200.512 59.904 6.144 20.416 199.040-59.392h519.616l209.216 60.096 5.888-20.544-212.096-60.928zM819.968 398.656l-0.896 21.376c0.448 0 43.2 1.792 95.104 7.552 26.752 5.184 50.112 16.96 69.184 33.664l14.080-16c-22.080-19.392-49.536-33.088-79.872-38.656-53.696-6.016-97.152-7.872-97.536-7.872zM183.552 393.344c-21.184 0.96-40.896 3.136-60.288 6.4l-11.584 1.536c-33.664 6.272-63.104 21.696-86.336 43.584l14.976 15.168c20.032-18.56 45.248-31.808 73.152-37.376l15.488-2.112c47.872-6.464 59.712-7.744 73.28-2.496l7.68-19.904c-7.36-2.944-16-4.736-24.96-4.736-0.448 0-0.96 0-1.408 0zM843.136 640h95.552v-21.312h-95.552zM85.312 640h95.872v-21.312h-95.872zM335.232 256c-11.2 0.512-65.216 4.032-82.048 23.040-2.24 2.56-4.736 5.056-7.296 7.744-23.808 24.32-42.752 53.504-55.296 85.888-2.944 6.208-4.288 11.456-4.288 17.088 0 12.352 6.656 23.168 16.576 29.056 19.328 12.224 79.488 48.896 79.488 48.896l11.072-18.176s-59.904-36.544-79.040-48.64c-4.096-2.112-6.848-6.272-6.848-11.136 0-2.24 0.64-4.352 1.664-6.208 12.096-31.936 29.824-59.328 52.032-82.176 2.752-2.816 5.312-5.568 7.744-8.32 8-9.024 44.416-14.784 66.56-15.872l345.984 0.064c24.32 3.072 46.080 8 67.136 14.72 17.344 6.144 46.4 54.464 64.832 96.448 1.024 1.536 1.664 3.52 1.664 5.632 0 3.712-1.984 6.976-4.928 8.768l-100.16 46.080 8.896 19.392 101.056-46.592c9.792-5.44 16.32-15.808 16.32-27.648 0-5.184-1.28-10.048-3.456-14.4-9.792-22.272-44.8-96.448-79.936-108.608-20.224-6.72-44.032-12.032-68.544-14.976zM155.648 597.312h712.512v-21.312h-712.512zM102.72 149.056c-17.856 0-35.584 0.064-48.512 0.256-6.72 0.192-12.608 3.2-16.64 7.936-26.624 29.504-17.728 156.672-15.232 186.176-0.768 16.064-1.216 33.664-1.216 53.056-0.32 6.016-0.512 13.056-0.512 20.032 0 37.248 4.928 73.408 14.144 107.776 6.528 10.048 15.936 20.8 27.072 29.44 13.696 9.728 29.568 16.704 46.784 20.224l11.2 2.368c0.448 0 0.96 0 1.536 0 10.368 0 19.328 5.824 23.872 14.464 10.816 16 43.712 75.776 44.096 76.416 16.896 23.424 36.096 43.648 57.664 61.056 6.848 4.672 13.952 8.256 21.568 10.816 12.608 4.672 26.368 7.36 40.832 7.552h405.376c14.272-0.128 27.84-2.816 40.384-7.616 8.896-3.008 17.28-7.552 24.704-13.184 19.968-16.896 37.632-35.84 52.928-56.576 1.728-2.624 34.56-62.464 45.376-78.272 4.608-8.704 13.568-14.592 23.936-14.592 0.512 0 1.088 0 1.536 0l10.368-2.24c17.984-3.648 33.92-10.688 47.744-20.416 11.008-8.512 20.416-19.328 27.328-31.744 8.832-32.064 13.696-68.288 13.696-105.664 0-7.104-0.192-14.272-0.512-21.248 0.064-17.984-0.384-35.584-1.152-51.584 2.496-29.376 11.392-156.736-15.232-186.176-4.032-4.8-9.92-7.808-16.576-8-36.672-0.576-111.168-0.064-119.488 0-0.512-0.064-1.152-0.128-1.792-0.128-4.672 0-8.96 1.664-12.288 4.416-5.696 5.248-9.344 12.672-9.664 20.992l-41.6 17.344h-545.28l-41.664-17.28c-0.32-8.32-3.968-15.744-9.664-21.056-3.328-2.752-7.616-4.416-12.288-4.416-0.64 0-1.28 0.064-1.92 0.128-5.312-0.064-38.336-0.32-70.912-0.32zM43.648 342.848c-8.064-94.080-0.896-168.448 10.816-172.16 38.464-0.576 118.912 0.064 119.744 0h0.32c1.216 2.752 1.92 6.016 1.92 9.408 0 0.704-0.064 1.344-0.128 1.984v7.040l60.48 24.256 553.6-0.768 56.384-23.424v-7.104c-0.064-0.576-0.064-1.28-0.064-1.92 0-3.392 0.704-6.656 1.984-9.536l0.256 0.128c0.768 0 81.28-0.576 119.744 0 11.776 3.712 18.816 77.76 10.88 171.456v0.064l-0.064 0.64h-0.064v0.448h0.064c0.768 16.064 1.216 33.728 1.216 53.248 0.32 5.696 0.448 12.416 0.448 19.2 0 34.944-4.416 68.864-12.736 101.248-5.056 6.144-11.968 13.76-20.032 19.904-11.392 7.872-24.512 13.632-38.72 16.384l-10.816 2.368c-16.512 0.64-30.72 9.792-38.464 23.168-11.392 16.832-43.712 75.52-45.184 78.144-14.656 19.52-30.656 36.608-48.32 51.776-6.016 4.544-12.544 8.064-19.456 10.368-10.112 3.904-21.184 6.080-32.768 6.208h-405.376c-11.904-0.128-23.168-2.368-33.664-6.336-5.632-1.856-11.072-4.544-16.128-7.872-19.584-16.128-36.928-34.368-51.712-54.528-1.216-2.24-33.6-60.928-44.928-77.632-7.872-13.632-22.080-22.784-38.528-23.424l-10.24-2.24c-14.848-2.944-28.032-8.64-39.552-16.64-7.872-6.144-14.848-13.632-20.288-22.272-7.872-29.824-12.352-63.744-12.352-98.624 0-6.656 0.128-13.248 0.448-19.776 0-18.752 0.384-36.224 1.152-52.032v-1.216z" />
<glyph unicode="&#xe952;" glyph-name="car--simple" d="M860.864 354.56c-1.088-0.128-2.304-0.128-3.584-0.128-11.328 0-21.632 4.416-29.248 11.712-6.016 8.896-9.6 19.968-9.6 31.872 0 9.152 2.112 17.728 5.888 25.408l3.456 15.168c5.888 39.168 37.12 69.44 76.224 74.048 45.056 12.736 81.088 22.144 81.088 22.144l10.752-41.344c-0.128 0-35.648-9.344-79.744-21.888-0.064 0-0.128 0-0.128 0-24.128 0-44.032-18.368-46.464-41.856l-3.84-16.704c-1.28-5.184-2.752-11.136-3.584-15.744 10.176 0.576 19.648 1.92 28.928 3.968 66.048 12.672 104.896 24.256 105.28 24.32l12.224-40.896c-1.6-0.512-41.088-12.224-110.656-25.6-10.944-2.496-23.68-4.032-36.672-4.416zM163.136 354.56c-13.312 0.448-26.048 1.984-38.336 4.8-68.288 13.184-107.648 24.832-109.312 25.344l12.224 40.896c0.384-0.128 39.296-11.584 106.432-24.512 8.064-1.792 17.536-3.136 27.264-3.712-0.384 4.544-1.792 10.56-3.072 15.68l-3.84 16.512c-2.432 23.68-22.336 42.048-46.464 42.048 0 0-0.128 0-0.128 0-44.16 12.544-79.68 21.824-79.744 21.824l10.752 41.28s36.032-9.408 80.64-22.144c39.488-4.544 70.72-34.88 76.544-73.6l3.712-16c3.648-7.296 5.76-15.936 5.76-25.024 0-11.904-3.648-22.912-9.792-32.128-7.424-7.040-17.728-11.456-29.056-11.456-1.216 0-2.496 0.064-3.712 0.128zM877.696 663.168h103.68v-42.688h-103.68zM42.624 663.168h103.616v-42.688h-103.616zM691.264 277.376h-353.6l-86.336 112.704 90.624 57.92h342.976l86.848-57.856zM358.72 320h310.528l42.176 59.072-39.424 26.304h-317.632l-40.96-26.176zM113.792 618.688h796.544v-42.688h-796.544zM956.672 106.624h-146.048v85.376h-597.376v-85.376h-146.048c-0.128 0-0.384 0-0.512 0-35.52 0-64.576 27.648-66.752 62.656v203.584c0 150.848 25.536 187.776 40.704 196.352l60.16 45.12c23.808 28.864 44.352 61.76 60.352 97.152 20.544 45.76 62.080 75.52 110.848 77.824h479.552c49.088-2.176 90.624-32.064 109.696-74.24 17.472-39.872 38.912-73.536 64.704-103.424l59.584-43.904c12.928-7.168 38.464-44.032 38.464-194.816v-203.008c-1.984-35.328-31.168-63.232-66.816-63.232-0.128 0-0.32 0-0.512 0zM853.376 149.376h103.424c0.128 0 0.256 0 0.32 0 12.288 0 22.464 9.024 24.256 20.8l0.064 202.752c0 135.36-21.888 161.216-22.144 161.472l-61.696 45.824c-30.144 33.024-55.232 71.488-73.536 113.472-13.504 30.912-40.384 50.752-72.128 52.992h-479.552c-31.936-2.24-58.752-22.080-71.104-49.792-19.328-44.224-43.52-81.856-72.64-114.944l-64.576-48.384c0.128 0-21.376-26.624-21.376-160.704v-203.008c1.984-11.776 12.096-20.608 24.256-20.608 0.128 0 0.256 0 0.384 0h103.36v85.376h682.624v-85.376z" />
<glyph unicode="&#xe953;" glyph-name="car-handover" d="M1006.528 415.872c-33.536 26.752-103.040 12.16-111.616 10.176l-233.28-70.272c-6.528 28.352-32.064 49.536-62.4 49.536h-227.712c-69.952 0-141.056-15.936-195.136-43.84-31.040-16-49.152-28.8-62.336-38.080-26.176-18.496-35.008-24.704-103.488-24.704h-10.688v-213.312h405.312c104.064 0 200 39.744 204.48 41.6 1.92 0.896 194.688 91.904 320.704 149.504l4.608 2.112c35.392 16.128 88.896 40.448 88.896 99.2 0 15.744-6.080 28.992-17.472 38.080zM926.272 297.984l-4.608-2.112c-126.080-57.728-318.976-148.736-320.512-149.44-0.896-0.384-96-39.744-195.776-39.744h-384v170.752c62.528 0.704 75.84 7.936 105.088 28.608 13.376 9.472 30.080 21.248 59.776 36.608 51.136 26.368 118.72 41.472 185.344 41.472h227.712c23.488 0 42.624-19.136 42.624-42.624s-19.136-42.624-42.624-42.624h-279.296v-21.376h279.296c32.768 0 59.84 24.704 63.552 56.512l237.504 71.616c18.496 4.224 71.232 11.136 92.864-6.208 6.464-5.184 9.472-12.032 9.472-21.44 0-45.056-42.368-64.32-76.416-79.744zM281.856 508.928c11.52-23.296 35.328-39.552 63.040-39.552 28.992 0 53.952 17.6 64.704 42.688h243.904c10.816-25.024 35.776-42.688 64.704-42.688s53.888 17.6 64.704 42.688h81.024c5.888 0 10.624 4.736 10.624 10.688v29.568c0 20.992 0 42.752-7.552 59.008-16.512 35.584-49.664 42.368-50.112 42.368l-136.576 44.48c-12.416 11.392-81.536 69.952-190.4 69.952-117.184 0-168.96-38.208-169.856-39.040l-122.688-67.776c-3.264-1.856-5.504-5.312-5.504-9.344v-107.904c0-2.048 0.576-3.968 1.6-5.632 1.856-2.944 19.52-27.776 88.192-29.44zM344.896 490.688c-27.136 0-49.216 22.080-49.216 49.216s22.080 49.152 49.152 49.152 49.152-22.080 49.152-49.152-22.080-49.152-49.152-49.152zM718.272 490.688c-27.136 0-49.152 22.080-49.152 49.216s22.080 49.152 49.152 49.152 49.152-22.080 49.152-49.152-22.080-49.152-49.152-49.152zM213.312 645.568l118.464 65.536c0.512 0.384 48.192 35.52 158.272 35.52 108.928 0 176.704-64.96 177.408-65.6 1.152-1.152 2.56-1.984 4.032-2.496l140.16-45.568c0.96-0.192 24.256-5.12 36.096-30.72 5.568-12.032 5.568-31.36 5.568-50.048v-18.88h-65.28c0.192 2.176 0.704 4.288 0.704 6.528 0 38.848-31.68 70.528-70.528 70.528s-70.528-31.68-70.528-70.528c0-2.24 0.448-4.352 0.704-6.528h-233.6c0.192 2.176 0.704 4.288 0.704 6.528 0 38.848-31.68 70.528-70.528 70.528s-70.528-31.68-70.528-70.528c0-3.2 0.512-6.272 0.96-9.344-40.768 2.176-57.216 13.248-62.016 17.536v97.536z" />
<glyph unicode="&#xe954;" glyph-name="car-handover--simple" d="M1002.816 364.224c-36.736 29.44-109.504 14.208-119.168 11.904l-227.776-68.608c-12.224 32.256-43.392 55.168-79.872 55.168h-201.472c-62.272 0-133.696-18.368-195.968-50.496l-20.992-10.88c-48.768-25.408-48.832-25.472-92.032-24.512-11.584 0.256-25.92 0.512-44.288 0.512h-21.376v-256h407.616c104 0 199.936 39.68 204.736 41.728 0.064 0.064 189.056 89.28 313.728 146.304l4.416 1.984c34.944 15.872 93.44 42.432 93.44 107.008 0 18.88-7.296 34.752-21.184 45.824zM912.896 250.304l-4.544-2.048c-124.608-57.024-313.344-146.112-313.344-146.176-1.088-0.448-92.032-38.080-187.392-38.080h-364.928v170.56c8.384-0.128 15.616-0.256 22.016-0.384 52.544-1.088 55.808-0.256 112.64 29.376l20.8 10.752c56.384 29.056 120.704 45.696 176.384 45.696h201.472c23.488 0 42.624-19.136 42.624-42.624s-19.136-42.624-42.624-42.624h-277.312v-42.624h277.312c42.624 0 78.080 31.424 84.288 72.32l234.112 70.656c24.128 5.44 66.816 7.936 81.728-3.968 2.752-2.176 5.184-5.184 5.184-12.48 0-34.368-29.632-50.56-68.416-68.224zM245.888 491.2c14.848-25.664 42.304-43.2 73.984-43.2 31.488 0 58.816 17.28 73.728 42.688h236.928c14.848-25.344 41.984-42.688 73.344-42.688s58.56 17.28 73.344 42.688h97.344c11.776 0 21.376 9.536 21.376 21.312v34.88c0 23.488 0 47.808-9.664 67.392-20.608 41.664-61.888 49.92-62.592 49.92l-151.616 46.080c-17.024 19.52-78.72 79.104-198.144 79.104-190.144 0-332.224-115.328-338.176-120.256-4.8-3.904-7.808-9.856-7.808-16.448 0 0 0 0 0 0v-118.976c0-6.912 3.392-13.44 8.96-17.408 3.456-2.432 34.88-22.592 108.928-25.024zM319.936 490.688c-23.808 0-43.136 19.328-43.136 43.072s19.392 43.136 43.136 43.136 43.072-19.392 43.072-43.136-19.328-43.072-43.072-43.072zM703.936 490.688c-23.488 0-42.624 19.328-42.624 43.072s19.136 43.136 42.624 43.136 42.624-19.392 42.624-43.136-19.136-43.072-42.624-43.072zM170.688 642.112c31.168 22.976 152.64 104.576 303.296 104.576 117.12 0 166.528-64.768 168.512-67.456 2.752-3.776 6.656-6.592 11.072-7.872l160.32-48.64c0.256 0 22.912-4.608 34.24-27.392 5.248-10.56 5.248-30.656 5.248-48.384v-13.504h-64.128c0 0.192 0.064 0.32 0.064 0.448 0 47.296-38.272 85.824-85.376 85.824s-85.376-38.464-85.376-85.824c0-0.192 0.064-0.32 0.064-0.448h-212.992c0 0.192 0 0.32 0 0.448 0 47.296-38.464 85.824-85.76 85.824-47.104 0-85.312-38.144-85.76-85.12-32.256 2.24-53.056 8.192-63.552 12.352v95.296z" />
<glyph unicode="&#xe955;" glyph-name="car-info" d="M200.533 537.6c4.267 6.4 6.4 10.667 6.4 12.8 8.533 10.667 17.067 21.333 27.733 32v29.867c-17.067-14.933-32-32-44.8-51.2-2.133-4.267-4.267-8.533-8.533-12.8-2.133-4.267-6.4-8.533-8.533-14.933h-2.133c6.4-4.267 12.8-10.667 19.2-14.933 4.267 6.4 6.4 12.8 10.667 19.2zM467.2 640h-125.867v-21.333h119.467c2.133 6.4 4.267 14.933 6.4 21.333zM1000.533 234.667c0 6.4 0 10.667 2.133 23.467 0 12.8 2.133 19.2 2.133 27.733 2.133 40.533-2.133 83.2-12.8 123.733l-2.133 2.133c-6.4 10.667-10.667 17.067-25.6 29.867-14.933 10.667-29.867 17.067-46.933 21.333-6.4 2.133-19.2 4.267-21.333 4.267-6.4 2.133-8.533 2.133-10.667 4.267s-2.133 4.267-4.267 6.4c-4.267 4.267-8.533 14.933-17.067 27.733h74.667v21.333h-87.467c-2.133 4.267-4.267 8.533-8.533 14.933s-6.4 10.667-6.4 12.8c-14.933 21.333-29.867 38.4-53.333 57.6-4.267 2.133-6.4 4.267-12.8 8.533-6.4 2.133-8.533 4.267-12.8 6.4-12.8 4.267-25.6 6.4-40.533 6.4h-142.933c0-6.4-2.133-14.933-4.267-21.333h145.067c10.667 0 21.333-2.133 32-4.267 2.133-2.133 4.267-2.133 10.667-6.4 6.4-2.133 8.533-4.267 10.667-6.4 21.333-19.2 36.267-34.133 49.067-53.333 0-2.133 4.267-6.4 6.4-12.8 6.4-8.533 10.667-19.2 17.067-29.867 4.267-6.4 6.4-12.8 10.667-17.067h-339.2c-6.4-6.4-12.8-14.933-19.2-21.333h371.2c2.133-2.133 4.267-4.267 6.4-6.4 6.4-6.4 10.667-8.533 21.333-10.667 2.133 0 14.933-2.133 19.2-4.267 12.8-4.267 27.733-10.667 38.4-17.067 4.267-4.267 8.533-8.533 10.667-10.667l-194.133-49.067h-518.4l-183.467 55.467c2.133 4.267 6.4 6.4 12.8 10.667 10.667 8.533 23.467 14.933 36.267 17.067-6.4 4.267-12.8 10.667-19.2 17.067-10.667-4.267-21.333-8.533-29.867-17.067-12.8-10.667-21.333-21.333-25.6-32-10.667-42.667-14.933-85.333-12.8-125.867 0-12.8 0-29.867 2.133-51.2 0 0 0-2.133 0-4.267 0-4.267 0-10.667 0-17.067-6.4-25.6-8.533-49.067-6.4-70.4 0-66.133 8.533-102.4 34.133-102.4h119.467c4.267 0 8.533 0 12.8 4.267 6.4 4.267 8.533 10.667 10.667 21.333l40.533 17.067h546.133l40.533-17.067c0-10.667 4.267-17.067 10.667-21.333 4.267-2.133 8.533-4.267 12.8-2.133h117.333c38.4-2.133 44.8 59.733 34.133 189.867zM768 341.333v0l202.667 57.6c4.267-14.933 6.4-32 8.533-46.933-19.2-17.067-42.667-27.733-66.133-32-25.6-4.267-44.8-4.267-87.467-8.533l-2.133 2.133-59.733 27.733h4.267zM279.467 334.933c4.267 2.133 8.533 4.267 10.667 6.4h422.4l98.133-46.933c4.267-2.133 6.4-8.533 2.133-14.933-14.933-34.133-38.4-74.667-57.6-89.6v0 0c-4.267-2.133-6.4-6.4-10.667-6.4-2.133 0-12.8-4.267-17.067-4.267-6.4-2.133-10.667-2.133-17.067-4.267-12.8-2.133-21.333-4.267-32-6.4h-345.6c-2.133 0-6.4 0-10.667 0-8.533 0-17.067 2.133-25.6 4.267-14.933 2.133-25.6 6.4-29.867 10.667-27.733 25.6-46.933 55.467-59.733 87.467-4.267 8.533-2.133 14.933 4.267 19.2s19.2 12.8 36.267 23.467c0 0 0 0 2.133 0 10.667 8.533 21.333 14.933 29.867 21.333zM53.333 398.933l189.867-55.467h6.4c-4.267-2.133-6.4-4.267-10.667-6.4 0 0 0 0-2.133 0-17.067-10.667-27.733-17.067-36.267-23.467l-2.133-2.133c0 0 0 0-2.133 0-12.8-4.267-23.467-2.133-85.333 6.4-27.733 6.4-51.2 17.067-70.4 34.133 6.4 12.8 8.533 29.867 12.8 46.933zM42.667 145.067c0 21.333 0 44.8 2.133 66.133 0 6.4 0 12.8 0 17.067 0 2.133 0 4.267 0 6.4-2.133 23.467-2.133 40.533-2.133 53.333 0 10.667 0 23.467 0 34.133 19.2-12.8 42.667-23.467 68.267-27.733 44.8-6.4 64-8.533 76.8-8.533 0-6.4 0-12.8 4.267-19.2 10.667-27.733 27.733-55.467 49.067-78.933l-198.4-46.933c0 2.133 0 4.267 0 4.267zM968.533 64h-119.467c0 2.133-2.133 4.267-2.133 10.667v6.4l-55.467 25.6h-558.933l-55.467-23.467v-6.4c0-6.4 0-10.667-2.133-10.667-17.067 0-19.2 0-70.4 0h-49.067c-4.267 0-10.667 21.333-12.8 55.467l215.467 49.067c8.533-6.4 21.333-12.8 38.4-14.933 8.533-2.133 19.2-2.133 27.733-4.267 6.4 0 10.667 0 12.8 0l345.6-2.133c12.8 2.133 23.467 2.133 36.267 6.4 4.267 2.133 10.667 2.133 17.067 4.267 4.267 0 14.933 4.267 17.067 4.267s6.4 2.133 8.533 4.267l221.867-49.067c-2.133-36.267-8.533-55.467-14.933-55.467zM782.933 185.6c19.2 21.333 38.4 55.467 53.333 87.467 2.133 6.4 2.133 12.8 2.133 19.2 36.267 2.133 55.467 4.267 78.933 6.4 23.467 4.267 44.8 12.8 64 25.6 0-12.8 0-23.467 0-36.267 0-8.533 0-14.933 0-27.733s-2.133-19.2-2.133-25.6c2.133-38.4 4.267-68.267 4.267-93.867l-200.533 44.8zM298.667 789.333h-21.333v-42.667h21.333v42.667zM288 426.667c136.533 0 245.333 108.8 245.333 245.333s-108.8 245.333-245.333 245.333-245.333-108.8-245.333-245.333 108.8-245.333 245.333-245.333zM288 896c123.733 0 224-100.267 224-224s-100.267-224-224-224-224 100.267-224 224 100.267 224 224 224zM298.667 704h-21.333v-149.333h21.333v149.333z" />
<glyph unicode="&#xe956;" glyph-name="car-search" d="M753.472 234.944l4.672 20.8 237.056-53.376-4.672-20.8zM28.096 202.368l232.448 53.376 4.736-20.8-232.448-53.376zM618.624 213.376v21.376h62.976c24.32 3.072 46.080 8 67.136 14.72 17.344 6.144 46.4 54.464 64.832 96.448 1.024 1.536 1.664 3.52 1.664 5.568 0 3.712-1.92 6.912-4.864 8.704l-100.16 46.080 8.896 19.392 101.056-46.592c9.792-5.44 16.32-15.744 16.32-27.584 0-5.184-1.28-10.048-3.456-14.4-9.792-22.272-44.8-96.512-79.936-108.608-20.224-6.72-43.968-12.032-68.544-14.976zM490.688 213.376h-155.456c-11.2 0.512-65.216 4.032-82.048 23.040-2.24 2.56-4.672 5.056-7.232 7.744-23.808 24.32-42.752 53.568-55.296 86.016l19.008 10.112c12.032-31.68 29.568-58.752 51.712-81.344 2.752-2.816 5.248-5.568 7.744-8.32 8-9.024 44.416-14.784 66.56-15.872l154.944 0.064v-21.376zM111.616 358.592c-33.664 6.272-63.104 21.696-86.336 43.52l14.976 15.232c20.032-18.56 45.184-31.808 73.152-37.44zM819.968 355.968l-0.896 21.376c0.448 0 43.2 1.792 95.104 7.552 26.752 5.248 50.112 17.024 69.184 33.6l14.080-16.064c-22.080-19.392-49.536-33.088-79.872-38.656-53.696-6.016-97.152-7.872-97.536-7.872zM769.536 405.376h-257.536v21.376h254.464l209.216 60.032 5.888-20.48-212.16-60.928zM843.136 597.312h95.552v-21.312h-95.552zM85.312 597.312h95.872v-21.312h-95.872zM102.72 106.368c-17.856 0-35.584 0.064-48.512 0.256-6.72 0.192-12.608 3.2-16.64 7.936-26.624 29.504-17.728 156.672-15.232 186.176-0.768 16-1.216 33.664-1.216 53.056-0.256 5.632-0.384 12.288-0.384 18.944 0 31.168 2.816 61.632 8.32 91.264l20.352-7.68c-4.672-25.344-7.296-54.464-7.296-84.224 0-6.272 0.128-12.48 0.32-18.752 0-18.752 0.384-36.224 1.152-52.032v-1.216c-8-94.080-0.896-168.448 10.816-172.16 38.464-0.576 118.976 0.064 119.744 0h0.32c1.216 2.752 1.92 6.016 1.92 9.408 0 0.704-0.064 1.344-0.128 1.984v7.040l60.48 24.256h296.384v-21.376h-294.272l-41.664-17.28c-0.32-8.32-3.968-15.744-9.664-21.056-3.264-2.752-7.616-4.416-12.224-4.416-0.64 0-1.344 0.064-1.92 0.128-5.312-0.064-38.336-0.32-70.912-0.32zM920.64 106.368c-32.576 0-65.536 0.256-70.912 0.256-0.512-0.064-1.152-0.128-1.792-0.128-4.672 0-8.96 1.664-12.352 4.416-5.696 5.248-9.344 12.672-9.664 20.992l-41.6 17.344h-122.944v21.376l129.152-0.768 56.384-23.424v-7.104c-0.064-0.576-0.064-1.28-0.064-1.92 0-3.392 0.704-6.656 1.984-9.536l0.256 0.128c0.768 0 81.28-0.64 119.744 0 11.776 3.712 18.816 77.76 10.88 171.52v0.064l-0.064 0.64h-0.064v0.448h0.064c0.768 16.064 1.216 33.728 1.216 53.248 0.32 5.696 0.448 12.416 0.448 19.2 0 34.944-4.416 68.864-12.736 101.248-5.056 6.144-11.968 13.76-20.032 19.904-11.392 7.872-24.512 13.632-38.72 16.384l-10.816 2.368c-16.512 0.64-30.72 9.792-38.464 23.168-11.392 16.832-43.712 75.52-45.184 78.144-14.656 19.52-30.656 36.608-48.32 51.776-6.016 4.608-12.544 8-19.456 10.368-10.112 3.904-21.184 6.080-32.768 6.272h-96.064v21.312h96c14.272-0.128 27.84-2.816 40.384-7.616 8.896-3.008 17.28-7.488 24.704-13.184 19.968-16.896 37.632-35.776 52.928-56.576 1.728-2.624 34.56-62.464 45.376-78.272 4.544-8.704 13.504-14.592 23.872-14.592 0.512 0 1.088 0 1.536 0l10.368-2.304c17.984-3.648 33.92-10.688 47.744-20.416 11.072-8.512 20.416-19.328 27.328-31.744 8.832-32.064 13.696-68.288 13.696-105.664 0-7.104-0.192-14.272-0.512-21.248 0.064-17.984-0.384-35.584-1.152-51.584 2.496-29.376 11.392-156.736-15.232-186.176-4.032-4.8-9.92-7.808-16.576-8-13.056-0.256-30.72-0.32-48.576-0.32zM597.376 554.688h270.784v-21.312h-270.784zM448 533.312h-314.048l11.328 16.704c10.752 15.872 43.712 74.048 44.032 74.688 16.896 23.36 36.032 43.584 57.6 60.992 6.848 4.608 13.952 8.192 21.568 10.816 12.608 4.736 26.368 7.36 40.768 7.552h160.064v-21.376h-160c-11.904-0.192-23.232-2.368-33.728-6.272-5.632-1.856-11.072-4.544-16.064-7.808-19.584-16.128-36.928-34.368-51.712-54.528-1.152-1.92-20.48-36.096-34.432-59.328h274.688v-21.312zM416.512 425.6l18.048 11.328 260.544-415.296-18.112-11.328zM290.048 384c-147.584 1.984-266.688 121.024-268.736 268.416 0 147.456 119.36 266.88 266.688 266.88s266.624-119.36 266.624-266.688c0-155.648-111.296-268.608-264.64-268.608zM290.048 896c-0.512 0-1.152 0-1.728 0-134.848 0-244.352-108.736-245.632-243.264 1.856-135.936 111.488-245.632 247.168-247.424 141.12 0 243.456 104 243.456 247.296-0.128 134.336-108.928 243.2-243.264 243.392z" />
<glyph unicode="&#xe957;" glyph-name="car-side" d="M800.043 234.667h-10.667c-49.323 0-90.091 37.397-95.424 85.333h-363.819c-5.333-47.936-46.080-85.333-95.424-85.333h-10.667c-49.557 0-90.475 37.76-95.488 86.016l-50.944 3.584c-29.525 2.133-54.165 28.053-56.149 59.051-1.707 26.709 7.445 78.677 14.229 101.333 10.176 33.877 28.352 55.061 52.608 61.248 16.064 4.117 32.448 7.573 48.725 10.283 23.957 3.989 64.491 25.472 103.723 46.251 30.891 16.384 62.848 33.301 89.28 43.2 34.603 12.992 99.285 15.701 147.477 15.701h6.315c68.544-0.341 115.349-5.675 139.136-15.851 23.232-9.963 65.195-44.203 128.171-104.683 74.496-10.027 125.547-19.84 155.989-29.995 49.835-16.619 81.173-50.133 89.216-74.24 5.461-16.363 6.379-29.547 6.379-60.885v-7.509c0-26.56-21.611-48.171-48.171-48.171h-59.093c-5.312-47.936-46.080-85.333-95.403-85.333zM309.376 341.333h405.333v-10.667c0-41.173 33.493-74.667 74.667-74.667h10.667c41.173 0 74.667 33.493 74.667 74.667v10.667h79.829c14.784 0 26.837 12.032 26.837 26.837v7.509c0 28.715-0.768 40.576-5.291 54.123-6.613 19.84-34.752 47.083-75.712 60.757-29.227 9.749-81.536 19.669-155.541 29.547l-3.456 0.448-2.517 2.432c-76.779 73.899-109.973 96.725-124.309 102.869-20.843 8.917-66.091 13.803-130.837 14.123l-6.208 0.021c-65.621 0-115.328-5.099-139.968-14.336-25.152-9.429-56.469-26.027-86.763-42.069-42.603-22.571-82.859-43.904-110.229-48.448-15.659-2.624-31.467-5.952-46.933-9.92-16.853-4.309-29.461-20.011-37.483-46.699-6.421-21.419-14.848-70.272-13.355-93.845 1.301-20.203 17.6-37.76 36.373-39.125l70.229-4.949v-9.941c0-41.173 33.493-74.667 74.667-74.667h10.667c41.173 0 74.667 33.493 74.667 74.667v10.667z" />
<glyph unicode="&#xe958;" glyph-name="car-side--simple" d="M800.896 205.099h-0.896c-57.429 0-105.301 41.429-115.371 95.957l-345.259-0.811c-10.027-54.101-57.557-95.147-114.517-95.147-59.563 0-107.989 42.667-116.779 98.219l-48.299 8.277c-35.157 2.475-62.336 34.261-59.733 72.107l8.533 112.597c2.432 34.859 29.184 65.707 65.024 74.88l7.808 2.005c13.525 3.499 24.875 6.4 39.339 8.832 23.083 3.84 64.256 25.685 104.064 46.763 32.256 17.067 65.664 34.773 93.611 45.269 37.248 13.952 105.429 16.896 155.989 16.896h6.784c72.235-0.341 121.984-6.144 147.925-17.237 15.872-6.784 46.976-25.472 133.205-107.989 70.997-9.685 121.856-19.84 155.349-31.019 48.512-16.128 90.027-50.432 100.992-83.285 5.589-16.725 5.461-37.803 5.376-64.469l-0.043-19.84c0-33.877-31.104-65.92-64-65.92l-44.587-0.597c-9.856-54.315-57.472-95.488-114.517-95.488zM725.376 343.808v-21.376c0-41.173 33.493-74.667 74.667-74.667h0.896c40.704 0 73.771 33.109 73.771 73.771v21.077l85.035 1.152c9.472 0 21.632 13.269 21.632 23.253l0.043 20.053c0.085 21.845 0.171 40.747-3.2 50.773-4.907 14.805-31.104 42.027-73.984 56.32-31.531 10.539-83.456 20.651-154.411 30.123l-6.912 0.896-5.035 4.864c-78.421 75.435-111.488 98.389-125.44 104.363-11.605 4.949-44.117 13.355-131.328 13.781h-6.571c-65.579 0-116.949-5.163-141.013-14.165-25.472-9.472-57.643-26.496-88.747-42.965-44.8-23.723-87.083-46.165-117.035-51.157-13.056-2.176-23.424-4.864-35.584-8.021l-7.936-2.048c-17.963-4.565-31.872-19.968-33.024-36.608l-8.533-112.597c-0.939-13.909 8.832-25.728 22.315-26.709l84.395-14.379v-17.963c0-40.704 33.067-73.771 73.771-73.771 42.453 0 75.563 33.109 75.563 73.771v21.291l426.667 0.939z" />
<glyph unicode="&#xe959;" glyph-name="caution" d="M490.688 256h21.312v-85.376h-21.312zM490.688 576h21.312v-234.624h-21.312zM967.424 42.624h-932.16l466.048 843.392zM71.424 64h859.84l-429.952 777.92z" />
<glyph unicode="&#xe95a;" glyph-name="caution--simple" d="M469.312 277.376h42.688v-85.376h-42.688zM469.312 618.688h42.688v-256h-42.688zM953.536 64h-925.824l464.192 833.28zM100.288 106.624h780.8l-389.376 702.72z" />
<glyph unicode="&#xe95b;" glyph-name="charging" d="M917.376 746.688v21.312h-170.624v85.312h-119.232c-83.008 0-129.536-28.8-153.92-53.056-29.056-28.864-44.544-68.48-46.464-117.568h-203.072c-1.152 0-117.312-1.472-117.312-128s116.096-128.192 117.312-128.192h89.92c38.272 0 91.392-29.632 91.392-85.184l-0.064-298.88h21.312l0.064 298.88c0 63.68-58.304 106.496-112.704 106.496h-89.92c-3.968 0.064-96.064 1.856-96.064 106.88s92.096 106.688 96 106.688h203.072c1.984-49.152 17.472-88.704 46.464-117.568 24.384-24.32 70.848-53.12 155.584-53.12h117.568v85.312h170.624v21.312h-170.624v149.312h170.624zM725.376 512h-97.92c-75.776 0-117.248 25.408-138.88 46.848-26.944 26.816-40.64 64.896-40.64 113.152s13.632 86.336 40.64 113.152c21.568 21.44 63.104 46.848 140.608 46.848h96.128v-320z" />
<glyph unicode="&#xe95c;" glyph-name="charging--simple" d="M896 661.44v42.688l-128-0.128v85.312h-127.296c-4.224-0.128-99.776 2.432-162.368-58.24-29.632-28.736-45.824-66.816-49.856-112.448h-182.4c-1.984-0.192-54.528 1.216-88.896-32.128-19.264-18.688-29.056-43.776-29.056-74.56s9.728-55.808 29.056-74.496c34.432-33.472 86.784-32.512 88.256-32.128h53.312c26.688 0 42.88-4.096 42.88-60.544v-238.016h42.688v238.016c0 71.36-26.368 103.168-85.568 103.168h-53.952c-0.448 0.256-36.864-0.576-58.112 20.288-10.688 10.432-15.936 24.832-15.936 43.776s5.248 33.28 15.936 43.776c21.312 20.8 57.6 20.288 58.688 20.224h183.104c4.032-45.632 20.224-83.712 49.856-112.448 57.088-55.36 141.888-58.24 158.784-58.24 1.536 0 2.56 0 2.88 0.064h128v85.44h128v42.688h-128v127.872l128 0.128zM725.376 448l-86.016-0.064c-0.832-0.128-81.6-1.984-131.328 46.208-25.664 24.832-38.656 59.584-38.656 103.104 0 43.456 12.928 78.080 38.464 102.976 45.888 44.608 119.36 46.4 130.688 46.4 0.832 0 1.344-0.064 1.472-0.064h85.312v-298.688z" />
<glyph unicode="&#xe95d;" glyph-name="circle-ellipsis" d="M714.667 490.667c-17.673 0-32-14.327-32-32s14.327-32 32-32c17.673 0 32 14.327 32 32v0c0 17.673-14.327 32-32 32v0zM288 490.667c-17.673 0-32-14.327-32-32s14.327-32 32-32c17.673 0 32 14.327 32 32v0c0 17.673-14.327 32-32 32v0zM501.333 490.667c-17.673 0-32-14.327-32-32s14.327-32 32-32c17.673 0 32 14.327 32 32v0c0 17.673-14.327 32-32 32v0zM714.667 512c29.455 0 53.333-23.878 53.333-53.333s-23.878-53.333-53.333-53.333c-29.455 0-53.333 23.878-53.333 53.333v0c0 29.455 23.878 53.333 53.333 53.333v0zM288 512c29.455 0 53.333-23.878 53.333-53.333s-23.878-53.333-53.333-53.333c-29.455 0-53.333 23.878-53.333 53.333v0c0 29.455 23.878 53.333 53.333 53.333v0zM501.333 512c29.455 0 53.333-23.878 53.333-53.333s-23.878-53.333-53.333-53.333c-29.455 0-53.333 23.878-53.333 53.333v0c0 29.455 23.878 53.333 53.333 53.333v0zM501.333 917.333c-253.315 0-458.667-205.352-458.667-458.667s205.352-458.667 458.667-458.667c253.315 0 458.667 205.352 458.667 458.667v0c0 253.315-205.352 458.667-458.667 458.667v0zM501.333 938.667c265.097 0 480-214.903 480-480s-214.903-480-480-480c-265.097 0-480 214.903-480 480v0c0 265.097 214.903 480 480 480v0z" />
<glyph unicode="&#xe95e;" glyph-name="circle-ellipsis--simple" d="M277.333 490.667c-11.782 0-21.333-9.551-21.333-21.333s9.551-21.333 21.333-21.333c11.782 0 21.333 9.551 21.333 21.333v0c0 11.782-9.551 21.333-21.333 21.333v0zM704 490.667c-11.782 0-21.333-9.551-21.333-21.333s9.551-21.333 21.333-21.333c11.782 0 21.333 9.551 21.333 21.333v0c0 11.782-9.551 21.333-21.333 21.333v0zM490.667 490.667c-11.782 0-21.333-9.551-21.333-21.333s9.551-21.333 21.333-21.333c11.782 0 21.333 9.551 21.333 21.333v0c0 11.782-9.551 21.333-21.333 21.333v0zM277.333 533.333c35.346 0 64-28.654 64-64s-28.654-64-64-64c-35.346 0-64 28.654-64 64v0c0 35.346 28.654 64 64 64v0zM704 533.333c35.346 0 64-28.654 64-64s-28.654-64-64-64c-35.346 0-64 28.654-64 64v0c0 35.346 28.654 64 64 64v0zM490.667 533.333c35.346 0 64-28.654 64-64s-28.654-64-64-64c-35.346 0-64 28.654-64 64v0c0 35.346 28.654 64 64 64v0zM490.667 917.333c-247.424 0-448-200.576-448-448s200.576-448 448-448c247.424 0 448 200.576 448 448v0c0 247.424-200.576 448-448 448v0zM490.667 960c270.988 0 490.667-219.679 490.667-490.667s-219.679-490.667-490.667-490.667c-270.988 0-490.667 219.679-490.667 490.667v0c0 270.988 219.679 490.667 490.667 490.667v0z" />
<glyph unicode="&#xe95f;" glyph-name="climate" d="M926.080 784.32c-17.792 19.776-56.256 49.472-92.352 65.536-39.104 17.344-89.088 20.8-121.6 8.448-37.376-14.208-74.112-55.68-87.232-79.232-9.92-17.728-29.056-70.656-38.016-120-6.976-38.656-10.112-72.064-11.136-84.736-18.944 9.344-40.512 14.656-63.872 14.656-43.776 0-81.536-18.368-106.624-48.128 0 17.088-0.192 44.544-1.216 69.44-1.792 43.648-7.808 104-19.392 142.272-5.44 18.048-25.92 79.040-60.672 106.944-32.96 26.432-73.536 30.848-111.168 11.968-40.32-20.16-76.928-67.904-96.128-102.656-23.552-42.752-31.104-83.712-22.592-121.92 10.816-48.192 57.664-95.488 114.048-114.944 44.8-15.488 80.832-19.328 113.152-21.248 4.288-0.256 9.088-0.32 14.016-0.32 18.944 0 40.448 1.536 51.968 2.496-8.96-18.624-14.080-39.744-14.080-62.592 0-44.416 18.816-82.688 49.344-107.712-9.024 0.256-19.136 0.512-23.68 0.512-8.448-0.256-79.488-1.152-127.104-7.616-55.104-7.488-87.168-16.896-104.384-23.488-23.040-8.832-92.992-35.776-102.912-97.6-5.952-37.056 16-77.44 32.896-96.256 13.632-15.232 27.712-30.848 70.848-56.896 42.24-25.408 77.12-27.904 93.76-27.904 2.432 0 4.544 0.064 6.144 0.128 53.696 1.408 97.024 26.368 125.312 72.128 45.632 73.92 54.656 193.216 56.128 219.776 18.56-8.896 39.488-13.888 62.144-13.888 43.392 0 80.832 17.984 105.856 47.296l-0.064-7.872c0-8.448 1.728-74.432 6.080-120.448 4.8-49.728 17.92-93.696 23.296-110.272 11.2-34.496 45.632-95.296 103.616-104.32 3.776-0.576 8.064-0.96 12.416-0.96 41.472 0 76.48 30.656 80.704 34.432 15.552 14.080 35.008 34.432 61.184 78.336 27.456 46.080 28.224 77.376 28.544 90.752 1.344 51.328-27.392 97.92-80.832 131.2-74.176 46.208-185.536 39.104-217.152 35.968 9.536 19.072 14.912 40.896 14.912 64.448 0 43.776-18.368 81.536-48.064 106.56 5.056-0.128 11.008-0.192 17.92-0.192 26.24 0 64.128 0.896 102.848 4.864 63.104 6.464 108.864 16.128 144.064 30.336 30.72 12.544 41.024 19.264 50.432 26.24 9.792 7.296 24 18.88 33.408 36.48 6.336 11.776 12.608 26.88 11.584 49.856-1.152 23.424-16.896 57.664-36.736 79.68zM384.064 534.080c-14.656-1.216-42.752-3.072-61.44-1.984-30.784 1.792-65.088 5.44-107.456 20.096-49.728 17.152-90.944 58.048-100.224 99.456-7.36 32.896-0.512 68.928 20.48 106.944 14.208 25.856 48.512 74.688 86.976 93.888 13.568 6.784 26.112 9.408 37.44 9.408 22.848 0 40.576-10.688 50.88-18.944 23.808-19.136 43.264-62.336 53.632-96.448 11.008-36.48 16.832-96.576 18.496-136.96 1.152-28.224 1.216-59.904 1.216-75.392zM639.232 364.8c31.36 2.88 135.68 8.64 202.368-32.96 46.784-29.12 71.872-69.12 70.784-112.576-0.32-12.672-0.896-39.040-25.536-80.32-24.704-41.536-42.752-60.416-57.152-73.536-14.016-12.672-45.632-33.088-75.584-28.224-41.536 6.464-73.984 51.072-86.592 89.792-5.184 15.936-17.728 58.112-22.272 105.728-4.352 45.248-6.016 110.080-6.016 118.464l0.064 13.632zM375.552 116.992c-16.96-27.456-49.408-60.48-107.776-62.080-11.264-0.32-45.312-1.152-88.384 24.768-40.384 24.32-52.8 38.144-66.688 53.632-12.928 14.464-31.744 48.32-27.072 77.824 7.168 44.608 54.528 67.584 89.536 81.088 13.184 5.056 43.648 14.656 99.584 22.272 45.632 6.208 113.152 7.424 123.648 7.424h0.512c5.568-0.064 19.392-0.448 29.248-0.704-2.368-33.792-12.928-139.84-52.608-204.16zM629.376 450.368c0-66.88-50.432-117.376-117.376-117.376s-117.312 50.432-117.312 117.312 50.432 117.312 117.312 117.312 117.376-50.432 117.376-117.312zM932.48 664.832c-7.424-13.76-19.136-23.36-27.328-29.44-8.512-6.272-17.344-12.096-45.824-23.616-33.152-13.504-77.056-22.656-138.176-28.928-51.776-5.312-101.952-5.056-123.584-4.544 1.408 15.296 4.48 44.608 10.368 76.928 8.768 48.704 27.584 98.944 35.584 113.408 11.776 21.056 45.632 58.048 76.16 69.696 27.328 10.368 71.552 6.976 105.344-8 35.52-15.808 71.232-44.736 85.184-60.288 16.64-18.432 30.4-47.616 31.296-66.432 0.896-18.56-4.224-29.76-9.088-38.784z" />
<glyph unicode="&#xe960;" glyph-name="climate--simple" d="M927.872 812.16c-65.536 65.6-209.344 131.776-316.032 29.824-71.168-71.104-71.104-194.112-64.576-249.984-11.392 2.752-23.232 4.544-35.584 4.544-40.256 0-76.032-15.424-102.656-40.512-0.64 197.504-33.216 308.224-100.224 336.32-58.944 24.768-116.096-25.792-132.224-41.856-66.048-66.048-132.544-209.088-28.672-312.896 54.080-46.336 121.92-70.976 193.984-70.976 7.424 0 14.976 0.704 22.464 1.216-0.896-6.784-2.048-13.632-2.048-20.736 0-40.512 15.616-76.608 41.024-103.296-185.856-4.608-296.832-43.968-328.576-119.424-23.744-56.448 5.568-114.176 37.824-146.496 20.032-20.032 91.712-84.8 179.712-84.8h2.048c46.272 0.512 87.296 19.136 122.432 56.064 61.76 71.232 90.688 163.84 76.928 250.24v0.128c5.952-0.704 11.776-1.728 17.92-1.728 32.32 0 61.76 9.92 85.952 26.752 3.392-182.016 40.896-290.432 112.704-320.64 13.504-5.632 27.328-8.128 40.896-8.128 43.584 0.064 85.632 25.408 112.512 52.288 27.584 27.584 91.712 100.8 90.752 184.448-0.512 43.328-18.24 81.92-52.672 114.816-91.008 86.848-215.744 71.104-244.864 65.984 2.432 10.88 4.032 22.080 4.032 33.792 0 42.176-16.704 79.744-44.032 106.688h22.656c207.872 0 322.56 32.64 350.4 99.904 18.368 44.416-3.072 99.2-62.208 158.336zM364.928 510.272c-70.336-5.76-137.216 15.168-188.032 58.688-80.64 80.704-24.512 197.056 29.888 251.456 18.752 18.752 44.928 35.968 68.736 35.968 5.76 0 11.392-1.024 16.832-3.264 28.8-12.096 76.8-69.824 74.368-318.976l-1.728-23.808zM385.344 77.952c-26.24-27.584-57.024-41.664-91.456-42.112h-1.536c-56.96 0-114.56 37.248-149.568 72.32-24.768 24.704-43.2 65.216-28.672 99.84 14.912 35.52 76.736 94.208 321.856 94.208 4.224 0 8.512 0 12.8-0.064l3.456-11.84c11.264-71.552-13.952-151.296-66.88-212.352zM639.68 362.368c3.008 1.984 13.824 6.208 21.632 8.512 1.28 0.128 126.912 25.984 211.2-54.336 25.792-24.704 39.104-53.12 39.488-84.48 0.512-46.72-28.672-104.256-78.272-153.792-20.928-20.928-66.88-51.584-106.752-34.944-33.6 14.080-89.664 74.816-87.744 318.464 0 0 0.128 0.256 0.512 0.576zM618.368 447.232c0-60.8-45.888-106.624-106.688-106.624s-106.688 45.888-106.688 106.624c0 60.8 45.824 106.688 106.688 106.688s106.688-45.824 106.688-106.688zM950.656 670.144c-11.392-27.456-66.944-73.6-310.912-73.6h-50.176c-6.272 51.392-3.648 159.168 52.16 214.912 85.056 81.216 199.68 26.816 256-29.504 26.176-26.24 67.968-75.648 52.992-111.808z" />
<glyph unicode="&#xe961;" glyph-name="climate-auto" d="M512 834.304l0.064-140.288c-0.192-3.456-5.12-85.248 38.592-164.416 5.824-10.56 11.584-20.608 17.088-30.464 34.432-60.736 61.632-108.736 61.632-179.072 0-79.296-33.728-213.44-160-213.44v-21.376c143.104 0 181.312 147.584 181.312 234.816 0 76.032-28.416 126.144-64.384 189.632-5.504 9.728-11.2 19.776-16.96 30.208-40.512 73.536-36.032 151.872-35.968 153.344v140.992l77.056-94.336 16.512 13.504-104.256 127.616-104.256-127.616 16.512-13.504 77.12 94.336zM768 834.304l0.064-140.288c-0.256-3.456-5.12-85.248 38.592-164.416 5.824-10.56 11.584-20.608 17.088-30.464 34.432-60.736 61.632-108.736 61.632-179.072 0-79.296-33.728-213.44-160-213.44v-21.376c143.104 0 181.312 147.584 181.312 234.816 0 76.032-28.416 126.144-64.384 189.632-5.504 9.728-11.2 19.776-16.96 30.208-40.512 73.536-36.032 151.872-35.968 153.344v140.992l77.056-94.336 16.512 13.504-104.256 127.616-104.256-127.616 16.512-13.504 77.056 94.336zM266.688 85.312c76.416 0 138.688 62.208 138.688 138.688 0 55.936-33.984 106.432-85.312 127.936v309.376h64v21.312h-64v42.432h64v21.312h-64v42.88h64v21.312h-64v32c0 29.44-23.936 53.376-53.312 53.376s-53.312-23.936-53.312-53.376v-490.816c-51.328-21.568-85.312-72.064-85.312-127.872 0-76.416 62.208-138.624 138.688-138.624zM234.688 842.688c0 17.664 14.336 32 32 32s32-14.336 32-32v-309.312h-64v309.312zM227.584 334.528l7.104 2.56v174.976h64v-174.848l7.104-2.56c46.784-16.704 78.272-61.12 78.272-110.592 0-64.704-52.608-117.312-117.312-117.312s-117.312 52.608-117.312 117.376c0 49.344 31.424 93.76 78.272 110.528zM128 0h768v21.376h-768v-21.376z" />
<glyph unicode="&#xe962;" glyph-name="climate-auto--simple" d="M810.624 878.080v-216.896c0-67.584 32.256-118.336 63.424-167.36 33.216-52.288 64.576-101.696 64.576-173.888 0-145.536-101.888-213.44-170.752-213.44v-42.624c102.656 0 213.376 97.92 213.376 256.128 0 84.608-37.824 144.128-71.296 196.736-29.184 45.952-56.704 89.344-56.704 144.512v216.896l112.768-114.432 30.464 29.952-164.544 166.848-164.544-166.848 30.464-29.952 112.768 114.432zM469.312 877.888v-216.64c0-67.584 32.192-118.272 63.424-167.36 33.216-52.288 64.576-101.76 64.576-173.888 0-145.536-101.888-213.44-170.752-213.44v-42.624c102.656 0 213.44 97.92 213.44 256.128 0 84.608-37.824 144.128-71.296 196.736-29.184 45.952-56.704 89.344-56.704 144.512v216.64l70.080-71.552 30.464 29.888-121.92 124.416-121.856-124.416 30.464-29.888 70.144 71.552zM149.312 63.936c82.368 0 149.312 67.008 149.312 149.312 0 57.792-33.728 110.272-85.312 134.848v270.464h84.928v42.688h-84.928v42.688h84.928v42.688h-84.928v42.688h84.928v42.688h-84.928v64c0 35.264-28.736 64-64 64s-64-28.736-64-64v-547.904c-51.584-24.704-85.312-77.056-85.312-134.784 0-82.368 67.008-149.312 149.312-149.312zM128 896c0 11.776 9.6 21.376 21.312 21.376s21.312-9.536 21.312-21.376v-362.688h-42.688v362.688zM113.856 313.792l14.144 5.056v171.776h42.688v-171.776l14.144-5.056c42.56-15.168 71.168-55.616 71.168-100.608 0-58.816-47.872-106.624-106.688-106.624s-106.688 47.872-106.688 106.624c0 44.864 28.608 85.248 71.232 100.48zM0-21.376v-42.624h1024v42.624h-1024z" />
<glyph unicode="&#xe963;" glyph-name="climate-electric" d="M576 309.248v309.376h64v21.312h-64v42.432h64v21.312h-64v42.88h64v21.312h-64v32c0 29.44-23.872 53.312-53.376 53.312s-53.312-23.936-53.312-53.312v-490.816c-51.328-21.568-85.312-72.064-85.312-127.872 0-76.416 62.208-138.688 138.688-138.688s138.624 62.208 138.624 138.624c0 55.936-33.984 106.432-85.376 127.936zM490.688 800c0 17.664 14.336 32 32 32s32-14.336 32-32v-309.312h-64v309.312zM522.624 64c-64.704 0-117.312 52.608-117.312 117.376 0 49.344 31.488 93.76 78.272 110.528l7.104 2.56v174.976h64v-174.848l7.104-2.56c46.848-16.704 78.272-61.12 78.272-110.592 0-64.704-52.608-117.312-117.312-117.312z" />
<glyph unicode="&#xe964;" glyph-name="climate-electric--simple" d="M554.624 305.536v270.464h84.928v42.688h-84.928v42.688h84.928v42.688h-84.928v42.688h84.928v42.688h-84.928v64c0 35.264-28.672 64-64 64s-64-28.736-64-64v-547.904c-51.584-24.704-85.312-77.056-85.312-134.784 0-82.368 67.008-149.312 149.312-149.312s149.376 67.008 149.376 149.376c0 57.792-33.728 110.272-85.376 134.848zM469.312 853.312c0 11.776 9.536 21.312 21.312 21.312s21.376-9.536 21.376-21.312v-362.688h-42.688v362.688zM490.688 63.936c-58.816 0-106.688 47.872-106.688 106.688 0 44.864 28.608 85.248 71.168 100.48l14.144 5.056v171.776h42.688v-171.776l14.208-5.056c42.56-15.168 71.168-55.552 71.168-100.608 0-58.816-47.872-106.688-106.688-106.688z" />
</font>
</defs>
</svg>
